Pacific Rim- Uprising 2018 x264 720p BluRay Dual Audio English Hindi THE GOPI SAHI

Pacific Rim: Uprising (2018)

12 03/22/2018 (NL) ActionFantasyScience FictionAdventure 1h 51m 

Rise Up

Overview

It has been ten years since The Battle of the Breach and the oceans are still, but restless. Vindicated by the victory at the Breach, the Jaeger program has evolved into the most powerful global defense force in human history. The PPDC now calls upon the best and brightest to rise up and become the next generation of heroes when the Kaiju threat returns.

Directed bySteven S. DeKnight
Written by
Based onCharacters
by Travis Beacham
Produced by
Starring
CinematographyDan Mindel
Edited by
Music byLorne Balfe
Production
companies
Distributed byUniversal Pictures[1][2]
Release date
  • March 15, 2018 (Vue West End)
  • March 23, 2018 (United States)
Running time
111 minutes[3]
CountryUnited States
LanguageEnglish
Budget$150–176 million[a]
Box office$290.9 million[4]  

 

Pacific Rim- Uprising 2018 x264 720p BluRay Dual Audio English Hindi THE GOPI SAHI


Format                         : Matroska
Format version                 : Version 4
File size                      : 1.43 GiB
Duration                       : 1 h 50 min
Overall bit rate               : 1 843 kb/s
Movie name                     : Pacific Rim: Uprising 2018 GOPI SAHI
Encoded date                   : UTC 2021-08-12 16:16:49

Video
ID                             : 1
Format                         : AVC
Format/Info                    : Advanced Video Codec
Format profile                 : [email protected]
Format settings                : CABAC / 5 Ref Frames
Format settings, CABAC         : Yes
Format settings, Reference fra : 5 frames
Codec ID                       : V_MPEG4/ISO/AVC
Duration                       : 1 h 50 min
Bit rate                       : 1 200 kb/s
Width                          : 1 280 pixels
Height                         : 534 pixels
Display aspect ratio           : 2.40:1
Frame rate mode                : Constant
Frame rate                     : 23.810 FPS
Color space                    : YUV
Chroma subsampling             : 4:2:0
Bit depth                      : 8 bits
Scan type                      : Progressive
Bits/(Pixel*Frame)             : 0.074
Stream size                    : 950 MiB (65%)
Title                          : GOPI SAHI
Writing library                : x264 core 157 r2935 545de2f
Matrix coefficients            : BT.709

Audio #1
ID                             : 2
Format                         : AAC LC
Format/Info                    : Advanced Audio Codec Low Complexity
Codec ID                       : A_AAC-2
Duration                       : 1 h 50 min
Bit rate                       : 256 kb/s
Channel(s)                     : 8 channels
Channel layout                 : C L R Ls Rs Lw Rw LFE
Sampling rate                  : 48.0 kHz
Frame rate                     : 46.875 FPS (1024 SPF)
Compression mode               : Lossy
Delay relative to video        : -21 ms
Stream size                    : 203 MiB (14%)
Title                          : Org BD DD+ 7.1 GOPI SAHI
Language                       : Hindi
Default                        : Yes
Forced                         : No

Audio #2
ID                             : 3
Format                         : AAC LC
Format/Info                    : Advanced Audio Codec Low Complexity
Codec ID                       : A_AAC-2
Duration                       : 1 h 50 min
Bit rate                       : 384 kb/s
Channel(s)                     : 6 channels
Channel layout                 : C L R Ls Rs LFE
Sampling rate                  : 48.0 kHz
Frame rate                     : 46.875 FPS (1024 SPF)
Compression mode               : Lossy
Delay relative to video        : -21 ms
Stream size                    : 304 MiB (21%)
Title                          : DD+ 5.1 GOPI SAHI
Language                       : English
Default                        : No
Forced                         : No

Menu
00:00:00.000                   : :Chapter 1
00:06:55.044                   : :Chapter 2
00:13:05.400                   : :Chapter 3
00:15:51.174                   : :Chapter 4
00:20:36.564                   : :Chapter 5
00:24:49.740                   : :Chapter 6
00:31:08.538                   : :Chapter 7
00:37:56.274                   : :Chapter 8
00:43:37.986                   : :Chapter 9
00:49:02.016                   : :Chapter 10
00:53:41.106                   : :Chapter 11
00:58:12.216                   : :Chapter 12
01:04:45.252                   : :Chapter 13
01:09:25.728                   : :Chapter 14
01:14:36.990                   : :Chapter 15
01:22:53.472                   : :Chapter 16
01:29:02.568                   : :Chapter 17
01:33:10.620                   : :Chapter 18
01:38:07.476                   : :Chapter 19
01:40:55.098                   : :Chapter 20



 

 MAGNET

TORRENT

TORRENT 2 PRIVATE

G-DRIVE FILE COPY

DOWNLOAD AUTO START IN 20 SEC


DOWNLOAD AND ONLINE TERA-BOX LINK

MEDIA-FIRE


MEGA NZ


DROPBOX

MAILRU


DOWNLOAD AND ONLINE

ONLINE 720P

 

 

Post a Comment

0 Comments