Peter Rabbit 2- The Runaway 2021 x264 720p Esub BluRay Dual Audio English Hindi THE GOPI SAHI

Peter Rabbit 2: The Runaway (2021)

PG 06/18/2021 (US) FamilyComedyAdventureAnimationFantasy 1h 33m 

The garden was just the beginning.

Overview

Bea, Thomas, and the rabbits have created a makeshift family, but despite his best efforts, Peter can’t seem to shake his mischievous reputation. Adventuring out of the garden, Peter finds himself in a world where his mischief is appreciated, but when his family risks everything to come looking for him, Peter must figure out what kind of bunny he wants to be.

 

 

Directed byWill Gluck
Written by
  • Will Gluck
  • Patrick Burleigh
Based onPeter Rabbit
by Beatrix Potter
Produced by
  • Will Gluck
  • Zareh Nalbandian
  • Catherine Bishop
  • Jodi Hildebrand
Starring
CinematographyPeter Menzies Jr.
Edited byMatt Villa
Music byDominic Lewis
Production
companies
Distributed bySony Pictures Releasing
Release date
  • March 25, 2021 (Australia)
  • May 17, 2021 (United Kingdom)
  • June 11, 2021 (United States)
Running time
93 minutes[2]
Countries
  • Australia
  • United Kingdom
  • United States
LanguageEnglish
Budget$45 million[3]
Box office$151.6 million[4][5]

 

 

Peter Rabbit 2- The Runaway 2021 x264 720p Esub BluRay Dual Audio English Hindi THE GOPI SAHI


Format                         : Matroska
Format version                 : Version 4
File size                      : 858 MiB
Duration                       : 1 h 33 min
Overall bit rate               : 1 286 kb/s
Movie name                     : Peter Rabbit 2- The Runaway 2021 GOPI SAHI
Encoded date                   : UTC 2021-08-06 12:18:52

Video
ID                             : 1
Format                         : AVC
Format/Info                    : Advanced Video Codec
Format profile                 : [email protected]
Format settings                : CABAC / 5 Ref Frames
Format settings, CABAC         : Yes
Format settings, Reference fra : 5 frames
Codec ID                       : V_MPEG4/ISO/AVC
Duration                       : 1 h 33 min
Bit rate                       : 899 kb/s
Width                          : 1 280 pixels
Height                         : 530 pixels
Display aspect ratio           : 2.40:1
Frame rate mode                : Constant
Frame rate                     : 23.976 (24000/1001) FPS
Color space                    : YUV
Chroma subsampling             : 4:2:0
Bit depth                      : 8 bits
Scan type                      : Progressive
Bits/(Pixel*Frame)             : 0.055
Stream size                    : 600 MiB (70%)
Title                          : GOPI SAHI
Writing library                : x264 core 157 r2935 545de2f


Audio #1
ID                             : 2
Format                         : AAC LC
Format/Info                    : Advanced Audio Codec Low Complexity
Codec ID                       : A_AAC-2
Duration                       : 1 h 33 min
Bit rate                       : 192 kb/s
Channel(s)                     : 6 channels
Channel layout                 : C L R Ls Rs LFE
Sampling rate                  : 48.0 kHz
Frame rate                     : 46.875 FPS (1024 SPF)
Compression mode               : Lossy
Delay relative to video        : -48 ms
Stream size                    : 128 MiB (15%)
Title                          : GOPI SAHI
Language                       : Hindi
Default                        : Yes
Forced                         : No

Audio #2
ID                             : 3
Format                         : AAC LC
Format/Info                    : Advanced Audio Codec Low Complexity
Codec ID                       : A_AAC-2
Duration                       : 1 h 33 min
Bit rate                       : 192 kb/s
Channel(s)                     : 6 channels
Channel layout                 : C L R Ls Rs LFE
Sampling rate                  : 48.0 kHz
Frame rate                     : 46.875 FPS (1024 SPF)
Compression mode               : Lossy
Delay relative to video        : -64 ms
Stream size                    : 128 MiB (15%)
Title                          : GOPI SAHI
Language                       : English
Default                        : No
Forced                         : No

Text
ID                             : 4
Format                         : UTF-8
Codec ID                       : S_TEXT/UTF8
Codec ID/Info                  : UTF-8 Plain Text
Duration                       : 1 h 26 min
Bit rate                       : 76 b/s
Count of elements              : 1379
Stream size                    : 48.2 KiB (0%)
Title                          : GOPI SAHI
Language                       : English
Default                        : Yes
Forced                         : No

 




 MAGNET

TORRENT

TORRENT 2 PRIVATE

G-DRIVE FILE COPY

DOWNLOAD AUTO START IN 20 SEC

DOWNLOAD AND ONLINE TERA-BOX LINK

MEDIA-FIRE

MEGA NZ

DOSYA

DROPBOX

MAILRU

DOWNLOAD AND ONLINE

ONLINE 720P

 

Post a Comment

0 Comments