Sas Rise Of The Black Swan 2021 x264 720p WebHD Esub English Hindi THE GOPI SAHI

SAS : Rise of the Black Swan (2021)

15 08/11/2021 (HU) ActionThriller 1h 58m 
 

Overview

Un soldat SAS en congé, Tom Buckingham, doit contrecarrer une attaque terroriste contre un train qui traverse le tunnel sous la Manche. Au fur et à mesure que l'action s'intensifie dans le train, des événements se produisent dans les couloirs du pouvoir qui peuvent faire la différence quant à savoir si Buckingham et les passagers civils sortent du tunnel vivants.

 
Directed byMagnus Martens
Screenplay byLaurence Malkin
Based onSAS: Red Notice
by Andy McNab
Produced by
Starring
CinematographyNick Remy Matthews
Edited byMegan Gill
Music byBenji Merrison
Production
companies
Distributed bySky Cinema
Release date
  • 12 March 2021 (United Kingdom)
Running time
123 minutes
CountryUnited Kingdom
LanguageEnglish
Box office$198,432[1]


Sas Rise Of The Black Swan 2021 x264 720p WebHD Esub English Hindi THE GOPI SAHI


Format                         : Matroska
Format version                 : Version 4
File size                      : 1.12 GiB
Duration                       : 2 h 5 min
Overall bit rate               : 1 282 kb/s
Movie name                     : Sas Rise Of The Black Swan 2021 GOPI SAHI
Encoded date                   : UTC 2021-08-28 03:14:01

Video
ID                             : 1
Format                         : AVC
Format/Info                    : Advanced Video Codec
Format profile                 : [email protected]
Format settings                : CABAC / 5 Ref Frames
Format settings, CABAC         : Yes
Format settings, Reference fra : 5 frames
Codec ID                       : V_MPEG4/ISO/AVC
Duration                       : 2 h 5 min
Bit rate                       : 899 kb/s
Width                          : 1 280 pixels
Height                         : 534 pixels
Display aspect ratio           : 2.40:1
Frame rate mode                : Constant
Frame rate                     : 24.000 FPS
Color space                    : YUV
Chroma subsampling             : 4:2:0
Bit depth                      : 8 bits
Scan type                      : Progressive
Bits/(Pixel*Frame)             : 0.055
Stream size                    : 804 MiB (70%)
Title                          : GOPI SAHI
Writing library                : x264 core 157 r2935 545de2f

Audio #1
ID                             : 2
Format                         : AAC LC
Format/Info                    : Advanced Audio Codec Low Complexity
Codec ID                       : A_AAC-2
Duration                       : 2 h 5 min
Bit rate                       : 192 kb/s
Channel(s)                     : 6 channels
Channel layout                 : C L R Ls Rs LFE
Sampling rate                  : 48.0 kHz
Frame rate                     : 46.875 FPS (1024 SPF)
Compression mode               : Lossy
Delay relative to video        : -21 ms
Stream size                    : 170 MiB (15%)
Title                          : GOPI SAHI
Language                       : Hindi
Default                        : Yes
Forced                         : No

Audio #2
ID                             : 3
Format                         : AAC LC
Format/Info                    : Advanced Audio Codec Low Complexity
Codec ID                       : A_AAC-2
Duration                       : 2 h 5 min
Bit rate                       : 192 kb/s
Channel(s)                     : 6 channels
Channel layout                 : C L R Ls Rs LFE
Sampling rate                  : 48.0 kHz
Frame rate                     : 46.875 FPS (1024 SPF)
Compression mode               : Lossy
Delay relative to video        : -21 ms
Stream size                    : 170 MiB (15%)
Title                          : GOPI SAHI
Language                       : English
Default                        : No
Forced                         : No

Text
ID                             : 4
Format                         : UTF-8
Codec ID                       : S_TEXT/UTF8
Codec ID/Info                  : UTF-8 Plain Text
Duration                       : 2 h 3 min
Bit rate                       : 81 b/s
Count of elements              : 1758
Stream size                    : 73.6 KiB (0%)
Title                          : GOPI SAHI
Language                       : English
Default                        : Yes
Forced                         : No




MAGNET

TORRENT

TORRENT 2 PRIVATE

G-DRIVE FILE COPY

DOWNLOAD AUTO START IN 20 SEC

DOWNLOAD AND ONLINE TERA-BOX LINK


MEDIA-FIRE

MEGA NZ

DROPBOX


DOWNLOAD AND ONLINE

ONLINE 720P

 

Post a Comment

0 Comments