Scent of a Woman 1992 x264 720p Esub BluRay Dual Audio English Hindi THE GOPI SAHI

 

Scent of a Woman (1992)

AL 03/04/1993 (NL) Drama 2h 36m 

Col. Frank Slade has a very special plan for the weekend!

Overview

Charlie Simms is a student at a private preparatory school who comes from a poor family. To earn the money for his flight home to Gresham, Oregon for Christmas, Charlie takes a job over Thanksgiving looking after retired U.S. Army officer Lieutenant Colonel Frank Slade, a cantankerous middle-aged man who lives with his niece and her family.

 

Directed byMartin Brest
Screenplay byBo Goldman
Based onIl buio e il miele
by Giovanni Arpino
Suggested by
Produced byMartin Brest
Starring
CinematographyDonald E. Thorin
Edited by
Music byThomas Newman
Production
company
City Light Films
Distributed byUniversal Pictures
Release date
  • December 23, 1992
Running time
156 minutes
CountryUnited States
LanguageEnglish
Budget$31 million[1]
Box office$134.1 million

 

Scent of a Woman 1992 x264 720p Esub BluRay Dual Audio English Hindi THE GOPI SAHI


Format                         : Matroska
Format version                 : Version 4
File size                      : 1.42 GiB
Duration                       : 2 h 36 min
Overall bit rate               : 1 297 kb/s
Movie name                     : Scent of a Woman 1992 GOPI SAHI
Encoded date                   : UTC 2021-08-24 13:52:57

Video
ID                             : 1
Format                         : AVC
Format/Info                    : Advanced Video Codec
Format profile                 : [email protected]
Format settings                : CABAC / 5 Ref Frames
Format settings, CABAC         : Yes
Format settings, Reference fra : 5 frames
Codec ID                       : V_MPEG4/ISO/AVC
Duration                       : 2 h 36 min
Bit rate                       : 899 kb/s
Width                          : 1 280 pixels
Height                         : 694 pixels
Display aspect ratio           : 1.85:1
Frame rate mode                : Constant
Frame rate                     : 23.976 (24000/1001) FPS
Color space                    : YUV
Chroma subsampling             : 4:2:0
Bit depth                      : 8 bits
Scan type                      : Progressive
Bits/(Pixel*Frame)             : 0.042
Stream size                    : 1 005 MiB (69%)
Title                          : GOPI SAHI
Writing library                : x264 core 157 r2935 545de2f

Audio #1
ID                             : 2
Format                         : AAC LC
Format/Info                    : Advanced Audio Codec Low Complexity
Codec ID                       : A_AAC-2
Duration                       : 2 h 36 min
Bit rate                       : 192 kb/s
Channel(s)                     : 6 channels
Channel layout                 : C L R Ls Rs LFE
Sampling rate                  : 48.0 kHz
Frame rate                     : 46.875 FPS (1024 SPF)
Compression mode               : Lossy
Delay relative to video        : 1 s 194 ms
Stream size                    : 215 MiB (15%)
Title                          : GOPI SAHI
Language                       : Hindi
Default                        : Yes
Forced                         : No

Audio #2
ID                             : 3
Format                         : AAC LC
Format/Info                    : Advanced Audio Codec Low Complexity
Codec ID                       : A_AAC-2
Duration                       : 2 h 36 min
Bit rate                       : 192 kb/s
Channel(s)                     : 6 channels
Channel layout                 : C L R Ls Rs LFE
Sampling rate                  : 48.0 kHz
Frame rate                     : 46.875 FPS (1024 SPF)
Compression mode               : Lossy
Delay relative to video        : -21 ms
Stream size                    : 215 MiB (15%)
Title                          : GOPI SAHI
Language                       : English
Default                        : No
Forced                         : No

Text #1
ID                             : 4
Format                         : PGS
Muxing mode                    : zlib
Codec ID                       : S_HDMV/PGS
Codec ID/Info                  : Picture based subtitle format used on BDs/HD-DVDs
Duration                       : 2 h 34 min
Bit rate                       : 171 b/s
Count of elements              : 36
Stream size                    : 194 KiB (0%)
Title                          : GOPI SAHI
Language                       : Hindi
Default                        : Yes
Forced                         : No

Text #2
ID                             : 5
Format                         : PGS
Muxing mode                    : zlib
Codec ID                       : S_HDMV/PGS
Codec ID/Info                  : Picture based subtitle format used on BDs/HD-DVDs
Duration                       : 2 h 30 min
Bit rate                       : 40.4 kb/s
Count of elements              : 4773
Stream size                    : 43.6 MiB (3%)
Title                          : GOPI SAHI
Language                       : English
Default                        : No
Forced                         : No

Menu
00:00:00.000                   : :Chapter 1
00:06:22.924                   : :Chapter 2
00:20:06.414                   : :Chapter 3
00:24:24.880                   : :Chapter 4
00:35:01.641                   : :Chapter 5
00:39:09.138                   : :Chapter 6
00:57:42.960                   : :Chapter 7
01:08:41.367                   : :Chapter 8
01:19:31.016                   : :Chapter 9
01:40:29.524                   : :Chapter 10
01:52:33.330                   : :Chapter 11
02:12:00.621                   : :Chapter 12
02:19:49.047                   : :Chapter 13
02:26:15.892                   : :Chapter 14
02:30:16.674                   : :Chapter 15
02:33:22.068                   : :Chapter 16




 

 MAGNET

TORRENT

TORRENT 2 PRIVATE


G-DRIVE FILE COPY


DOWNLOAD AUTO START IN 20 SEC


DOWNLOAD AND ONLINE TERA-BOX LINK

MEDIA-FIRE

MEGA NZ

TELEGRAM

DROPBOX


MAILRU


DOWNLOAD AND ONLINE

ONLINE 720P

 

Post a Comment

0 Comments