Set Up 2011 x264 720p BluRay Dual Audio English Hindi THE GOPI SAHI

 

Setup (2011)

16 11/04/2011 (NL) ActionCrimeDramaThriller 1h 25m 
 

Overview

A group of friends plan out a detailed heist that turns deadly when one betrays the other by taking off with the goods. Taking matters into his own hands, Sonny seeks out his revenge teaming up with the most dangerous mob boss in town to get back what is rightfully his. When he finally comes face to face with his longtime friend he will be forced to make a life changing choice.

Directed byMike Gunther
Written byMike Behrman
Mike Gunther
Produced byRandall Emmett
50 Cent
Starring50 Cent
Bruce Willis
Ryan Phillippe
Jenna Dewan
Brett Granstaff
Randy Couture
Will Yun Lee
Shaun Toub
Susie Abromeit
Rory Markham
Jay Karnes
James Remar
CinematographySteve Gainer
Music byThe Newton Brothers
Production
companies
Cheetah Vision
Hedge Fund Film Partners
Hannibal Films
Emmett/Furla Films
Distributed byLionsgate
Grindstone Entertainment Group
Release date
  • September 20, 2011
Running time
85 minutes
CountryUnited States
LanguageEnglish
Box office$2,140,476[1]



 

 Set Up 2011 x264 720p BluRay Dual Audio English Hindi THE GOPI SAHI

Format                         : Matroska
Format version                 : Version 4
File size                      : 664 MiB
Duration                       : 1 h 24 min
Overall bit rate               : 1 093 kb/s
Movie name                     : Set Up 2011 GOPI SAHI
Encoded date                   : UTC 2021-08-10 03:32:33

Video
ID                             : 1
Format                         : AVC
Format/Info                    : Advanced Video Codec
Format profile                 : [email protected]
Format settings                : CABAC / 5 Ref Frames
Format settings, CABAC         : Yes
Format settings, Reference fra : 5 frames
Codec ID                       : V_MPEG4/ISO/AVC
Duration                       : 1 h 24 min
Bit rate                       : 899 kb/s
Width                          : 1 280 pixels
Height                         : 534 pixels
Display aspect ratio           : 2.40:1
Frame rate mode                : Constant
Frame rate                     : 23.976 (24000/1001) FPS
Color space                    : YUV
Chroma subsampling             : 4:2:0
Bit depth                      : 8 bits
Scan type                      : Progressive
Bits/(Pixel*Frame)             : 0.055
Stream size                    : 545 MiB (82%)
Title                          : GOPI SAHI
Writing library                : x264 core 157 r2935 545de2f

Audio #1
ID                             : 2
Format                         : AAC LC
Format/Info                    : Advanced Audio Codec Low Complexity
Codec ID                       : A_AAC-2
Duration                       : 1 h 24 min
Bit rate                       : 96.0 kb/s
Channel(s)                     : 2 channels
Channel layout                 : L R
Sampling rate                  : 48.0 kHz
Frame rate                     : 46.875 FPS (1024 SPF)
Compression mode               : Lossy
Delay relative to video        : 29 s 979 ms
Stream size                    : 58.1 MiB (9%)
Title                          : GOPI SAHI
Language                       : Hindi
Default                        : Yes
Forced                         : No

Audio #2
ID                             : 3
Format                         : AAC LC
Format/Info                    : Advanced Audio Codec Low Complexity
Codec ID                       : A_AAC-2
Duration                       : 1 h 24 min
Bit rate                       : 96.0 kb/s
Channel(s)                     : 2 channels
Channel layout                 : L R
Sampling rate                  : 48.0 kHz
Frame rate                     : 46.875 FPS (1024 SPF)
Compression mode               : Lossy
Delay relative to video        : -21 ms
Stream size                    : 58.5 MiB (9%)
Title                          : GOPI SAHI
Language                       : English
Default                        : No
Forced                         : No




MAGNET


TORRENT

TORRENT 2 PRIVATE


G-DRIVE FILE COPY

DOWNLOAD AUTO START IN 20 SEC

DOWNLOAD AND ONLINE TERA-BOX LINK

MEDIA-FIRE

MEGA NZ

DOSYA

DROPBOX

MAILRU

DOWNLOAD AND ONLINE

ONLINE 720P

 

Post a Comment

0 Comments