Snowpiercer 2013 1080p x265 10bit BluRay AC3 Org DDP2.0 Hindi DDP5.1 English THE GOPI SAHI

 

Snowpiercer (2013)

R 06/27/2014 (US) ActionScience FictionDrama 2h 7m 
 

AD 2031, the passengers in the train are the only survivors on Earth.

Overview

In a future where a failed global-warming experiment kills off most life on the planet, a class system evolves aboard the Snowpiercer, a train that travels around the globe via a perpetual-motion engine.

Directed byBong Joon-ho
Screenplay by
Story byBong Joon-ho
Based on
Produced by
Starring
CinematographyHong Kyung-pyo
Edited by
  • Steve M. Choe
  • Changju Kim
Music byMarco Beltrami
Production
companies
Distributed byCJ Entertainment (South Korea)
Release date
Running time
126 minutes
Countries
  • South Korea
  • Czech Republic[1]
LanguageEnglish[2]
Budget$40 million[3]
Box office$86.8 million[4]

 



Snowpiercer 2013 1080p x265 10bit BluRay AC3 Org DDP2.0 Hindi DDP5.1 English THE GOPI SAHI


Format                         : Matroska
Format version                 : Version 4
File size                      : 4.51 GiB
Duration                       : 2 h 5 min
Overall bit rate               : 5 128 kb/s
Movie name                     : Snowpiercer 2013 1080p x265 10bit BluRay AC3 Org DDP2.0 Hindi DDP5.1 English GOPI SAHI
Encoded date                   : UTC 2021-08-02 08:35:34

Video
ID                             : 1
Format                         : HEVC
Format/Info                    : High Efficiency Video Coding
Format profile                 : Main [email protected]@Main
Codec ID                       : V_MPEGH/ISO/HEVC
Duration                       : 2 h 5 min
Bit rate                       : 4 263 kb/s
Width                          : 1 920 pixels
Height                         : 1 036 pixels
Display aspect ratio           : 1.85:1
Frame rate mode                : Constant
Frame rate                     : 23.976 (24000/1001) FPS
Color space                    : YUV
Chroma subsampling             : 4:2:0
Bit depth                      : 10 bits
Bits/(Pixel*Frame)             : 0.089
Stream size                    : 3.75 GiB (83%)
Title                          : GOPI SAHI
Language                       : English
Default                        : Yes
Forced                         : No
Color range                    : Limited
Color primaries                : BT.709
Transfer characteristics       : BT.709
Matrix coefficients            : BT.709

Audio #1
ID                             : 2
Format                         : E-AC-3
Format/Info                    : Enhanced AC-3
Commercial name                : Dolby Digital Plus
Codec ID                       : A_EAC3
Duration                       : 2 h 5 min
Bit rate mode                  : Constant
Bit rate                       : 224 kb/s
Channel(s)                     : 2 channels
Channel layout                 : L R
Sampling rate                  : 48.0 kHz
Frame rate                     : 31.250 FPS (1536 SPF)
Compression mode               : Lossy
Stream size                    : 202 MiB (4%)
Title                          : GOPI SAHI
Language                       : Hindi
Service kind                   : Complete Main
Default                        : Yes
Forced                         : Yes

Audio #2
ID                             : 3
Format                         : E-AC-3
Format/Info                    : Enhanced AC-3
Commercial name                : Dolby Digital Plus
Codec ID                       : A_EAC3
Duration                       : 2 h 5 min
Bit rate mode                  : Constant
Bit rate                       : 640 kb/s
Channel(s)                     : 6 channels
Channel layout                 : L R C LFE Ls Rs
Sampling rate                  : 48.0 kHz
Frame rate                     : 31.250 FPS (1536 SPF)
Compression mode               : Lossy
Stream size                    : 576 MiB (12%)
Title                          : GOPI SAHI
Language                       : English
Service kind                   : Complete Main
Default                        : No
Forced                         : No





TORRENT

G-DRIVE FILE COPY

DOWNLOAD AUTO START IN 20 SEC

MEDIA-FIRE

DROPBOX

MEGA NZ

DOWNLOAD AND ONLINE

ONLINE 720P

 

 

Post a Comment

0 Comments