Snowpiercer 2013 x264 720p BluRay Dual Audio English Hindi THE GOPI SAHI

 

Snowpiercer (2013)

R 06/27/2014 (US) ActionScience FictionDrama 2h 7m 
 

AD 2031, the passengers in the train are the only survivors on Earth.

Overview

In a future where a failed global-warming experiment kills off most life on the planet, a class system evolves aboard the Snowpiercer, a train that travels around the globe via a perpetual-motion engine.

Directed byBong Joon-ho
Screenplay by
Story byBong Joon-ho
Based on
Produced by
Starring
CinematographyHong Kyung-pyo
Edited by
  • Steve M. Choe
  • Changju Kim
Music byMarco Beltrami
Production
companies
Distributed byCJ Entertainment (South Korea)
Release date
Running time
126 minutes
Countries
  • South Korea
  • Czech Republic[1]
LanguageEnglish[2]
Budget$40 million[3]
Box office$86.8 million[4]

 


 
 
Snowpiercer 2013 x264 720p BluRay Dual Audio English Hindi THE GOPI SAHI

Format                         : Matroska
Format version                 : Version 4
File size                      : 1.05 GiB
Duration                       : 2 h 5 min
Overall bit rate               : 1 190 kb/s
Movie name                     : Snowpiercer 2013 GOPI SAHI
Encoded date                   : UTC 2021-08-03 08:04:06


Video
ID                             : 1
Format                         : AVC
Format/Info                    : Advanced Video Codec
Format profile                 : [email protected]
Format settings                : CABAC / 5 Ref Frames
Format settings, CABAC         : Yes
Format settings, Reference fra : 5 frames
Codec ID                       : V_MPEG4/ISO/AVC
Duration                       : 2 h 5 min
Bit rate                       : 899 kb/s
Width                          : 1 280 pixels
Height                         : 690 pixels
Display aspect ratio           : 1.85:1
Frame rate mode                : Constant
Frame rate                     : 23.976 (24000/1001) FPS
Color space                    : YUV
Chroma subsampling             : 4:2:0
Bit depth                      : 8 bits
Scan type                      : Progressive
Bits/(Pixel*Frame)             : 0.042
Stream size                    : 809 MiB (75%)
Title                          : GOPI SAHI
Writing library                : x264 core 157 r2935 545de2f

Audio #1
ID                             : 2
Format                         : AAC LC
Format/Info                    : Advanced Audio Codec Low Complexity
Codec ID                       : A_AAC-2
Duration                       : 2 h 5 min
Bit rate                       : 96.0 kb/s
Channel(s)                     : 2 channels
Channel layout                 : L R
Sampling rate                  : 48.0 kHz
Frame rate                     : 46.875 FPS (1024 SPF)
Compression mode               : Lossy
Delay relative to video        : -21 ms
Stream size                    : 86.9 MiB (8%)
Title                          : GOPI SAHI
Language                       : Hindi
Default                        : Yes
Forced                         : No

Audio #2
ID                             : 3
Format                         : AAC LC
Format/Info                    : Advanced Audio Codec Low Complexity
Codec ID                       : A_AAC-2
Duration                       : 2 h 5 min
Bit rate                       : 192 kb/s
Channel(s)                     : 6 channels
Channel layout                 : C L R Ls Rs LFE
Sampling rate                  : 48.0 kHz
Frame rate                     : 46.875 FPS (1024 SPF)
Compression mode               : Lossy
Delay relative to video        : -21 ms
Stream size                    : 173 MiB (16%)
Title                          : GOPI SAHI
Language                       : English
Default                        : No
Forced                         : No



 
 

Post a Comment

0 Comments