Space Jam a New Legacy 2021 x264 720p WebHD Esub English Hindi THE GOPI SAHI

 

Space Jam: A New Legacy (2021)

9 07/16/2021 (NL) AnimationComedyFamilyScience Fiction 1h 55m 

Welcome to the Jam!

Overview

When LeBron and his young son Dom are trapped in a digital space by a rogue A.I., LeBron must get them home safe by leading Bugs, Lola Bunny and the whole gang of notoriously undisciplined Looney Tunes to victory over the A.I.'s digitized champions on the court. It's Tunes versus Goons in the highest-stakes challenge of his life.

Directed byMalcolm D. Lee[a]
Screenplay by
  • Juel Taylor
  • Tony Rettenmaier
  • Keenan Coogler
  • Terence Nance
  • Jesse Gordon
  • Celeste Ballard
Story by
  • Juel Taylor
  • Tony Rettenmaier
  • Keenan Coogler
  • Terence Nance[b]
Based on
Produced by
Starring
CinematographySalvatore Totino[c]
Edited byBob Ducsay
Music byKris Bowers[d]
Production
companies
Distributed byWarner Bros. Pictures
Release date
  • July 12, 2021 (Los Angeles)
  • July 16, 2021 (United States)
Running time
115 minutes[3]
CountryUnited States
LanguageEnglish
Budget$150 million[4]
Box office$145 million[5][6]

Space Jam a New Legacy 2021 x264 720p WebHD Esub English Hindi THE GOPI SAHI


Format                         : Matroska
Format version                 : Version 4
File size                      : 1.20 GiB
Duration                       : 1 h 55 min
Overall bit rate               : 1 486 kb/s
Movie name                     : Space Jam a New Legacy 2021 GOPI SAHI
Encoded date                   : UTC 2021-08-17 09:13:17

Video
ID                             : 1
Format                         : AVC
Format/Info                    : Advanced Video Codec
Format profile                 : [email protected]
Format settings                : CABAC / 5 Ref Frames
Format settings, CABAC         : Yes
Format settings, Reference fra : 5 frames
Codec ID                       : V_MPEG4/ISO/AVC
Duration                       : 1 h 55 min
Bit rate                       : 1 099 kb/s
Width                          : 1 280 pixels
Height                         : 692 pixels
Display aspect ratio           : 1.85:1
Frame rate mode                : Constant
Frame rate                     : 23.976 (24000/1001) FPS
Color space                    : YUV
Chroma subsampling             : 4:2:0
Bit depth                      : 8 bits
Scan type                      : Progressive
Bits/(Pixel*Frame)             : 0.052
Stream size                    : 907 MiB (74%)
Title                          : GOPI SAHI
Writing library                : x264 core 157 r2935 545de2f

Audio #1
ID                             : 2
Format                         : AAC LC
Format/Info                    : Advanced Audio Codec Low Complexity
Codec ID                       : A_AAC-2
Duration                       : 1 h 55 min
Bit rate                       : 192 kb/s
Channel(s)                     : 6 channels
Channel layout                 : C L R Ls Rs LFE
Sampling rate                  : 48.0 kHz
Frame rate                     : 46.875 FPS (1024 SPF)
Compression mode               : Lossy
Stream size                    : 159 MiB (13%)
Title                          : GOPI SAHI
Language                       : Hindi
Default                        : Yes
Forced                         : No

Audio #2
ID                             : 3
Format                         : AAC LC
Format/Info                    : Advanced Audio Codec Low Complexity
Codec ID                       : A_AAC-2
Duration                       : 1 h 55 min
Bit rate                       : 192 kb/s
Channel(s)                     : 6 channels
Channel layout                 : C L R Ls Rs LFE
Sampling rate                  : 48.0 kHz
Frame rate                     : 46.875 FPS (1024 SPF)
Compression mode               : Lossy
Delay relative to video        : -21 ms
Stream size                    : 159 MiB (13%)
Title                          : GOPI SAHI
Language                       : English
Default                        : No
Forced                         : No

Text
ID                             : 4
Format                         : UTF-8
Codec ID                       : S_TEXT/UTF8
Codec ID/Info                  : UTF-8 Plain Text
Duration                       : 1 h 55 min
Bit rate                       : 95 b/s
Count of elements              : 2656
Stream size                    : 80.3 KiB (0%)
Title                          : GOPI SAHI
Language                       : English
Default                        : Yes
Forced                         : No





MAGNET


TORRENT

TORRENT 2 PRIVATE

G-DRIVE FILE COPY

DOWNLOAD AUTO START IN 20 SEC


DOWNLOAD AND ONLINE TERA-BOX LINK

MEDIA-FIRE

MEGA NZ

TELEGRAM

MEGAUP

DROPBOX

MAILRU

DOWNLOAD AND ONLINE


ONLINE 720P

 

Post a Comment

0 Comments