The Furies 2019 x264 720p Esub BluRay Dual Audio English Hindi THE GOPI SAHI

 

The Furies (2019)

18 09/06/2019 (DE) HorrorActionThriller 1h 22m 

Stay alive or die trying.

Overview

A gripping female-driven horror film where a young woman faces her darkest fears with seven other unwilling participants in a deadly game. A game that can only have one winner. The film burrows into universal themes of survival, revenge and redemption, and reveals the darkness lurking within us all.

Directed byLê Văn Kiệt
StarringVeronica Ngo
Cát Vy
Phan Thanh Nhiên
Phạm Anh Khoa
Trần Thanh Hoa
Production
company
Studio 68
Distributed byWell Go USA Entertainment
Release date
  • 22 February 2019 (Vietnam)
Running time
98 minutes
CountryVietnam
LanguageVietnamese
Budget$1 million
Box office$5.7 million [1]

 


 The Furies 2019 x264 720p Esub BluRay Dual Audio English Hindi THE GOPI SAHI

Format                         : Matroska
Format version                 : Version 4
File size                      : 647 MiB
Duration                       : 1 h 22 min
Overall bit rate               : 1 094 kb/s
Movie name                     : The Furies 2019 GOPI SAHI
Encoded date                   : UTC 2021-08-11 01:04:46

Video
ID                             : 1
Format                         : AVC
Format/Info                    : Advanced Video Codec
Format profile                 : [email protected]
Format settings                : CABAC / 5 Ref Frames
Format settings, CABAC         : Yes
Format settings, Reference fra : 5 frames
Codec ID                       : V_MPEG4/ISO/AVC
Duration                       : 1 h 22 min
Bit rate                       : 899 kb/s
Width                          : 1 280 pixels
Height                         : 550 pixels
Display aspect ratio           : 2.35:1
Frame rate mode                : Constant
Frame rate                     : 23.976 (24000/1001) FPS
Color space                    : YUV
Chroma subsampling             : 4:2:0
Bit depth                      : 8 bits
Scan type                      : Progressive
Bits/(Pixel*Frame)             : 0.053
Stream size                    : 531 MiB (82%)
Title                          : GOPI SAHI
Writing library                : x264 core 157 r2935 545de2f

Audio #1
ID                             : 2
Format                         : AAC LC
Format/Info                    : Advanced Audio Codec Low Complexity
Codec ID                       : A_AAC-2
Duration                       : 1 h 22 min
Bit rate                       : 96.0 kb/s
Channel(s)                     : 2 channels
Channel layout                 : L R
Sampling rate                  : 48.0 kHz
Frame rate                     : 46.875 FPS (1024 SPF)
Compression mode               : Lossy
Delay relative to video        : -21 ms
Stream size                    : 57.0 MiB (9%)
Title                          : GOPI SAHI
Language                       : Hindi
Default                        : Yes
Forced                         : No

Audio #2
ID                             : 3
Format                         : AAC LC
Format/Info                    : Advanced Audio Codec Low Complexity
Codec ID                       : A_AAC-2
Duration                       : 1 h 22 min
Bit rate                       : 96.0 kb/s
Channel(s)                     : 2 channels
Channel layout                 : L R
Sampling rate                  : 48.0 kHz
Frame rate                     : 46.875 FPS (1024 SPF)
Compression mode               : Lossy
Delay relative to video        : -21 ms
Stream size                    : 57.0 MiB (9%)
Title                          : GOPI SAHI
Language                       : English
Default                        : No
Forced                         : No

Text
ID                             : 4
Format                         : UTF-8
Codec ID                       : S_TEXT/UTF8
Codec ID/Info                  : UTF-8 Plain Text
Duration                       : 1 h 22 min
Bit rate                       : 25 b/s
Count of elements              : 1044
Stream size                    : 15.5 KiB (0%)
Title                          : GOPI SAHI
Language                       : English
Default                        : Yes
Forced                         : No

Menu
00:00:00.000                   : :Chapter 1
00:07:39.125                   : :Chapter 2
00:11:10.003                   : :Chapter 3
00:21:23.949                   : :Chapter 4
00:29:16.421                   : :Chapter 5
00:38:20.965                   : :Chapter 6
00:44:26.664                   : :Chapter 7
00:52:35.152                   : :Chapter 8
00:58:24.835                   : :Chapter 9
01:04:46.549                   : :Chapter 10
01:14:36.472                   : :Chapter 11
01:18:50.059                   : :Chapter 12




 MAGNET

TORRENT

TORRENT 2 PRIVATE


G-DRIVE FILE COPY

DOWNLOAD AUTO START IN 20 SEC

DOWNLOAD AND ONLINE TERA-BOX LINK


MEDIA-FIRE

MEGA NZ

KOO

DOSYA


DROPBOX

MAILRU

DOWNLOAD AND ONLINE

ONLINE 720P

 

Post a Comment

0 Comments