The Homesman 2014 x264 720p BluRay Dual Audio English Hindi THE GOPI SAHI

The Homesman (2014)

R 07/24/2014 (NL) WesternDrama 2h 2m 

Overview

When three women living on the edge of the American frontier are driven mad by harsh pioneer life, the task of saving them falls to the pious, independent-minded Mary Bee Cuddy. Transporting the women by covered wagon to Iowa, she soon realizes just how daunting the journey will be, and employs a low-life drifter, George Briggs, to join her. The unlikely pair and the three women head east, where a waiting minister and his wife have offered to take the women in. But the group first must traverse the harsh Nebraska Territories marked by stark beauty, psychological peril and constant threat.

Directed byTommy Lee Jones
Screenplay by
  • Tommy Lee Jones
  • Kieran Fitzgerald
  • Wesley Oliver
Based onThe Homesman
by Glendon Swarthout
Produced by
Starring
CinematographyRodrigo Prieto
Edited byRoberto Silvi
Music byMarco Beltrami
Production
companies
Distributed byRoadside Attractions (United States)
EuropaCorp Distribution (France)
Release date
  • May 18, 2014 (Cannes)
  • November 14, 2014 (United States)
Running time
123 minutes[1]
Countries
  • United States
  • France[2]
LanguageEnglish
Budget$16 million[3]
Box office$8.2 million[3]  


The Homesman 2014 x264 720p BluRay Dual Audio English Hindi THE GOPI SAHI


Format                         : Matroska
Format version                 : Version 4
File size                      : 964 MiB
Duration                       : 2 h 3 min
Overall bit rate               : 1 093 kb/s
Movie name                     : The Homesman 2014 GOPI SAHI
Encoded date                   : UTC 2021-08-09 05:47:27

Video
ID                             : 1
Format                         : AVC
Format/Info                    : Advanced Video Codec
Format profile                 : [email protected]
Format settings                : CABAC / 5 Ref Frames
Format settings, CABAC         : Yes
Format settings, Reference fra : 5 frames
Codec ID                       : V_MPEG4/ISO/AVC
Duration                       : 2 h 3 min
Bit rate                       : 899 kb/s
Width                          : 1 280 pixels
Height                         : 534 pixels
Display aspect ratio           : 2.40:1
Frame rate mode                : Constant
Frame rate                     : 23.976 (24000/1001) FPS
Color space                    : YUV
Chroma subsampling             : 4:2:0
Bit depth                      : 8 bits
Scan type                      : Progressive
Bits/(Pixel*Frame)             : 0.055
Stream size                    : 792 MiB (82%)
Title                          : GOPI SAHI
Writing library                : x264 core 157 r2935 545de2f
Matrix coefficients            : BT.709

Audio #1
ID                             : 2
Format                         : AAC LC
Format/Info                    : Advanced Audio Codec Low Complexity
Codec ID                       : A_AAC-2
Duration                       : 2 h 2 min
Bit rate                       : 96.0 kb/s
Channel(s)                     : 2 channels
Channel layout                 : L R
Sampling rate                  : 48.0 kHz
Frame rate                     : 46.875 FPS (1024 SPF)
Compression mode               : Lossy
Delay relative to video        : 37 s 179 ms
Stream size                    : 84.6 MiB (9%)
Title                          : GOPI SAHI
Language                       : Hindi
Default                        : Yes
Forced                         : No

Audio #2
ID                             : 3
Format                         : AAC LC
Format/Info                    : Advanced Audio Codec Low Complexity
Codec ID                       : A_AAC-2
Duration                       : 2 h 3 min
Bit rate                       : 96.0 kb/s
Channel(s)                     : 2 channels
Channel layout                 : L R
Sampling rate                  : 48.0 kHz
Frame rate                     : 46.875 FPS (1024 SPF)
Compression mode               : Lossy
Delay relative to video        : -21 ms
Stream size                    : 84.9 MiB (9%)
Title                          : GOPI SAHI
Language                       : English
Default                        : No
Forced                         : No




 MAGNET

TORRENT

TORRENT 2 PRIVATE


G-DRIVE FILE COPY


DOWNLOAD AUTO START IN 20 SEC

DOWNLOAD AND ONLINE TERA-BOX LINK

MEDIA-FIRE

MEGA NZ

DOSYA


DROPBOX

MAILRU

DOWNLOAD AND ONLINE


ONLINE 720P

 

Post a Comment

0 Comments