The Hunt For Red October 1990 x264 720p WebHD Esub English Hindi THE GOPI SAHI

The Hunt for Red October (1990)

6 08/17/1990 (NL) ActionAdventureThriller 2h 15m 

Invisible. Silent. Stolen.

Overview

Based on Tom Clancy's bestseller, directed by John McTiernan (Die Hard) and starring Sean Connery and Alec Baldwin, The Hunt For Red October seethes with high-tech excitement and sweats with the tension of men who hold Doomsday in their hands. A new technologically-superior Soviet nuclear sub, the Red October, is heading for the U.S. coast under the command of Captain Marko Ramius (Connery). The American government thinks Ramius is planning to attack. A lone CIA analyst (Baldwin) has a different idea: he thinks Ramius is planni

Directed byJohn McTiernan
Screenplay by
Based onThe Hunt for Red October
by Tom Clancy
Produced byMace Neufeld
Starring
CinematographyJan de Bont
Edited by
Music byBasil Poledouris
Production
companies
  • Mace Neufeld Productions
  • Nina Saxon Film Design
Distributed byParamount Pictures
Release date
  • March 2, 1990 (United States)
Running time
135 minutes[1]
CountryUnited States
Languages
  • English
  • Russian
Budget$30 million[2]
Box office$200.5 million

ng to defect, but he has only a few hours to find him and prove it - because the entire Russian naval and air commands are trying to find him, too. The hunt is on!



The Hunt For Red October 1990 x264 720p WebHD Esub English Hindi THE GOPI SAHI


Format                         : Matroska
Format version                 : Version 4
File size                      : 1.22 GiB
Duration                       : 2 h 15 min
Overall bit rate               : 1 284 kb/s
Movie name                     : The Hunt For Red October 1990 GOPI SAHI
Encoded date                   : UTC 2021-08-20 06:49:26

Video
ID                             : 1
Format                         : AVC
Format/Info                    : Advanced Video Codec
Format profile                 : [email protected]
Format settings                : CABAC / 5 Ref Frames
Format settings, CABAC         : Yes
Format settings, Reference fra : 5 frames
Codec ID                       : V_MPEG4/ISO/AVC
Duration                       : 2 h 15 min
Bit rate                       : 899 kb/s
Width                          : 1 280 pixels
Height                         : 546 pixels
Display aspect ratio           : 2.35:1
Frame rate mode                : Constant
Frame rate                     : 23.976 (24000/1001) FPS
Color space                    : YUV
Chroma subsampling             : 4:2:0
Bit depth                      : 8 bits
Scan type                      : Progressive
Bits/(Pixel*Frame)             : 0.054
Stream size                    : 872 MiB (70%)
Title                          : GOPI SAHI
Writing library                : x264 core 157 r2935 545de2f

Audio #1
ID                             : 2
Format                         : AAC LC
Format/Info                    : Advanced Audio Codec Low Complexity
Codec ID                       : A_AAC-2
Duration                       : 2 h 15 min
Bit rate                       : 192 kb/s
Channel(s)                     : 6 channels
Channel layout                 : C L R Ls Rs LFE
Sampling rate                  : 48.0 kHz
Frame rate                     : 46.875 FPS (1024 SPF)
Compression mode               : Lossy
Delay relative to video        : -21 ms
Stream size                    : 185 MiB (15%)
Title                          : GOPI SAHI
Language                       : Hindi
Default                        : Yes
Forced                         : No

Audio #2
ID                             : 3
Format                         : AAC LC
Format/Info                    : Advanced Audio Codec Low Complexity
Codec ID                       : A_AAC-2
Duration                       : 2 h 15 min
Bit rate                       : 192 kb/s
Channel(s)                     : 6 channels
Channel layout                 : C L R Ls Rs LFE
Sampling rate                  : 48.0 kHz
Frame rate                     : 46.875 FPS (1024 SPF)
Compression mode               : Lossy
Delay relative to video        : -21 ms
Stream size                    : 185 MiB (15%)
Title                          : GOPI SAHI
Language                       : English
Default                        : No
Forced                         : No

Text
ID                             : 4
Format                         : UTF-8
Codec ID                       : S_TEXT/UTF8
Codec ID/Info                  : UTF-8 Plain Text
Duration                       : 2 h 10 min
Bit rate                       : 69 b/s
Count of elements              : 2196
Stream size                    : 66.8 KiB (0%)
Title                          : GOPI SAHI
Language                       : English
Default                        : Yes
Forced                         : No




 MAGNET

 
TORRENT

TORRENT 2 PRIVATE

G-DRIVE FILE COPY

2 DRIVE FILE COPY 

 G-TOT DRIVE FILE COPY

DOWNLOAD AUTO START IN 20 SEC

DOWNLOAD AND ONLINE TERA-BOX LINK

MEDIA-FIRE


MEGA NZ

TELEGRAM


MEGAUP

DROPBOX

MAILRU

DOWNLOAD AND ONLINE


ONLINE 720P


Post a Comment

3 Comments

  1. Gdrive Link not working show File not found

    ReplyDelete
  2. Gdrive Link not working show File not found I try form 5 days it still shows not with this movie show with all other movies

    ReplyDelete
    Replies
    1. change google drive ac i check perfect work bro and try re sing in toharer.pw

      Delete

No Except Any Movie Request Here,Try To Donate Money For Website Then Request, If You No Donate Way Post Request Here ,Nonprofit Services, No Ads, No Any Earning, If Download Link Not Work Post a Comment On Movie Page For Re-upload, Post a Comment On Any Movie Page If You Donate For This Website, Thanks Keep Support. Any Torrent-Magnet Not Reseed,Seed Only First 30 Days,Then Use Google Drive For Download.