The Legend of Tarzan 2016 x264 720p Esub BluRay Dual Audio English Hindi THE GOPI SAHI

 

The Legend of Tarzan (2016)

12 07/07/2016 (NL) FantasyActionAdventureDramaRomance 1h 49m 

Human. Nature.

Overview

Tarzan, having acclimated to life in London, is called back to his former home in the jungle to investigate the activities at a mining encampment.

 
Directed byDavid Yates
Screenplay by
Story by
  • Craig Brewer
  • Adam Cozad
Based onTarzan
by Edgar Rice Burroughs
Produced by
Starring
CinematographyHenry Braham
Edited byMark Day
Music byRupert Gregson-Williams
Production
companies
Distributed by
Release date
  • June 27, 2016 (Dolby Theatre)
  • July 1, 2016 (United States)
  • July 6, 2016 (United Kingdom)
  • July 7, 2016 (Australia)
Running time
110 minutes[1]
Countries
  • Australia
  • United Kingdom
  • United States[2]
LanguageEnglish
Budget$180 million[3]
Box office$356.7 million[3]
 

The Legend of Tarzan 2016 x264 720p Esub BluRay Dual Audio English Hindi THE GOPI SAHI


Format                         : Matroska
Format version                 : Version 4
File size                      : 1.04 GiB
Duration                       : 1 h 49 min
Overall bit rate               : 1 356 kb/s
Movie name                     : The Legend of Tarzan 2016 GOPI SAHI
Encoded date                   : UTC 2021-08-26 09:10:43

Video
ID                             : 1
Format                         : AVC
Format/Info                    : Advanced Video Codec
Format profile                 : [email protected]
Format settings                : CABAC / 5 Ref Frames
Format settings, CABAC         : Yes
Format settings, Reference fra : 5 frames
Codec ID                       : V_MPEG4/ISO/AVC
Duration                       : 1 h 49 min
Bit rate                       : 899 kb/s
Width                          : 1 280 pixels
Height                         : 534 pixels
Display aspect ratio           : 2.40:1
Frame rate mode                : Constant
Frame rate                     : 23.976 (24000/1001) FPS
Color space                    : YUV
Chroma subsampling             : 4:2:0
Bit depth                      : 8 bits
Scan type                      : Progressive
Bits/(Pixel*Frame)             : 0.055
Stream size                    : 706 MiB (66%)
Title                          : GOPI SAHI
Writing library                : x264 core 157 r2935 545de2f

Audio #1
ID                             : 2
Format                         : AAC LC
Format/Info                    : Advanced Audio Codec Low Complexity
Codec ID                       : A_AAC-2
Duration                       : 1 h 49 min
Bit rate                       : 192 kb/s
Channel(s)                     : 6 channels
Channel layout                 : C L R Ls Rs LFE
Sampling rate                  : 48.0 kHz
Frame rate                     : 46.875 FPS (1024 SPF)
Compression mode               : Lossy
Delay relative to video        : 979 ms
Stream size                    : 151 MiB (14%)
Title                          : GOPI SAHI
Language                       : Hindi
Default                        : Yes
Forced                         : No

Audio #2
ID                             : 3
Format                         : AAC LC
Format/Info                    : Advanced Audio Codec Low Complexity
Codec ID                       : A_AAC-2
Duration                       : 1 h 49 min
Bit rate                       : 256 kb/s
Channel(s)                     : 8 channels
Channel layout                 : C L R Ls Rs Lw Rw LFE
Sampling rate                  : 48.0 kHz
Frame rate                     : 46.875 FPS (1024 SPF)
Compression mode               : Lossy
Delay relative to video        : -21 ms
Stream size                    : 201 MiB (19%)
Title                          : GOPI SAHI
Language                       : English
Default                        : No
Forced                         : No

Text
ID                             : 4
Format                         : PGS
Muxing mode                    : zlib
Codec ID                       : S_HDMV/PGS
Codec ID/Info                  : Picture based subtitle format used on BDs/HD-DVDs
Duration                       : 1 h 47 min
Bit rate                       : 20.8 kb/s
Count of elements              : 1880
Stream size                    : 16.0 MiB (2%)
Title                          : GOPI SAHI
Language                       : English
Default                        : Yes
Forced                         : No

Menu
00:00:00.000                   : :Chapter 1
00:10:56.239                   : :Chapter 2
00:20:47.204                   : :Chapter 3
00:28:26.288                   : :Chapter 4
00:40:49.197                   : :Chapter 5
00:51:03.310                   : :Chapter 6
01:01:15.297                   : :Chapter 7
01:10:22.635                   : :Chapter 8
01:20:58.145                   : :Chapter 9
01:29:09.344                   : :Chapter 10
01:42:06.495                   : :Chapter 11





 MAGNET

TORRENT

TORRENT 2 PRIVATE

G-DRIVE FILE COPY

DOWNLOAD AUTO START IN 20 SEC

DOWNLOAD AND ONLINE TERA-BOX LINK

MEDIA-FIRE


MEGA NZ

MEGAUP

DROPBOX

DOWNLOAD AND ONLINE

ONLINE 720P

 

Post a Comment

0 Comments