The Mustang 2019 x264 720p Esub BluRay Dual Audio English Hindi THE GOPI SAHI

 

The Mustang (2019)

U 03/15/2019 (US) Drama 1h 36m 

Overview

While participating in a rehabilitation program training wild mustangs, a convict at first struggles to connect with the horses and his fellow inmates, but he learns to confront his violent past as he soothes an especially feisty horse.

Directed byLaure de Clermont-Tonnerre
Written by
Produced byAlain Goldman
Starring
CinematographyRuben Impens
Edited byGéraldine Mangenot
Music byJed Kurzel
Production
companies
Distributed byAd Vitam (France)[1][2]
Sony Pictures Releasing
Universal Pictures (Belgium)[2]
Release date
  • January 31, 2019 (Sundance)
  • March 15, 2019 (United States)
Running time
96 minutes
Countries
  • France
  • Belgium
LanguageEnglish
Box office$6.4 million[1]

 

 


The Mustang 2019 x264 720p Esub BluRay Dual Audio English Hindi THE GOPI SAHI

Format                         : Matroska
Format version                 : Version 4
File size                      : 891 MiB
Duration                       : 1 h 36 min
Overall bit rate               : 1 295 kb/s
Movie name                     : The Mustang 2019 GOPI SAHI
Encoded date                   : UTC 2021-08-05 13:03:19

Video
ID                             : 1
Format                         : AVC
Format/Info                    : Advanced Video Codec
Format profile                 : [email protected]
Format settings                : CABAC / 5 Ref Frames
Format settings, CABAC         : Yes
Format settings, Reference fra : 5 frames
Codec ID                       : V_MPEG4/ISO/AVC
Duration                       : 1 h 36 min
Bit rate                       : 899 kb/s
Width                          : 1 280 pixels
Height                         : 768 pixels
Display aspect ratio           : 5:3
Frame rate mode                : Constant
Frame rate                     : 23.976 (24000/1001) FPS
Color space                    : YUV
Chroma subsampling             : 4:2:0
Bit depth                      : 8 bits
Scan type                      : Progressive
Bits/(Pixel*Frame)             : 0.038
Stream size                    : 619 MiB (69%)
Title                          : GOPI SAHI
Writing library                : x264 core 157 r2935 545de2f

Audio #1
ID                             : 2
Format                         : AAC LC
Format/Info                    : Advanced Audio Codec Low Complexity
Codec ID                       : A_AAC-2
Duration                       : 1 h 36 min
Bit rate                       : 192 kb/s
Channel(s)                     : 6 channels
Channel layout                 : C L R Ls Rs LFE
Sampling rate                  : 48.0 kHz
Frame rate                     : 46.875 FPS (1024 SPF)
Compression mode               : Lossy
Delay relative to video        : -21 ms
Stream size                    : 132 MiB (15%)
Title                          : GOPI SAHI
Language                       : Hindi
Default                        : Yes
Forced                         : No

Audio #2
ID                             : 3
Format                         : AAC LC
Format/Info                    : Advanced Audio Codec Low Complexity
Codec ID                       : A_AAC-2
Duration                       : 1 h 36 min
Bit rate                       : 192 kb/s
Channel(s)                     : 6 channels
Channel layout                 : C L R Ls Rs LFE
Sampling rate                  : 48.0 kHz
Frame rate                     : 46.875 FPS (1024 SPF)
Compression mode               : Lossy
Delay relative to video        : -21 ms
Stream size                    : 132 MiB (15%)
Title                          : GOPI SAHI
Language                       : English
Default                        : No
Forced                         : No

Text
ID                             : 4
Format                         : PGS
Muxing mode                    : zlib
Codec ID                       : S_HDMV/PGS
Codec ID/Info                  : Picture based subtitle format used on BDs/HD-DVDs
Duration                       : 1 h 29 min
Bit rate                       : 31.9 kb/s
Count of elements              : 2014
Stream size                    : 20.4 MiB (2%)
Title                          : GOPI SAHI
Language                       : English
Default                        : No
Forced                         : No

Menu
00:00:00.000                   : :Chapter 1
00:05:16.399                   : :Chapter 2
00:09:23.063                   : :Chapter 3
00:14:55.228                   : :Chapter 4
00:18:54.842                   : :Chapter 5
00:24:36.767                   : :Chapter 6
00:28:44.431                   : :Chapter 7
00:31:41.233                   : :Chapter 8
00:36:22.097                   : :Chapter 9
00:42:52.737                   : :Chapter 10
00:47:03.154                   : :Chapter 11
00:51:05.854                   : :Chapter 12
00:56:38.395                   : :Chapter 13
01:01:18.133                   : :Chapter 14
01:06:50.632                   : :Chapter 15
01:13:47.131                   : :Chapter 16
01:17:55.087                   : :Chapter 17
01:23:27.628                   : :Chapter 18
01:28:40.315                   : :Chapter 19
01:30:42.604                   : :Chapter 20



 

MAGNET

TORRENT

TORRENT 2 PRIVATE


G-DRIVE FILE COPY

DOWNLOAD AUTO START IN 20 SEC

DOWNLOAD AND ONLINE TERA-BOX LINK

MEDIA-FIRE

MEGA NZ

DOSYA

DROPBOX

MAILRU

DOWNLOAD AND ONLINE

ONLINE 720P


Post a Comment

0 Comments