The Punisher 1989 x264 720p Esub BluRay Dual Audio English Hindi THE GOPI SAHI

The Punisher (1989)

R 10/05/1989 (US) ActionThriller 1h 29m 
 

If society won't punish the guilty, he will.

Overview

The avenging angel of Marvel Comics fame comes brilliantly to life in this searing action-adventure thriller! Dolph Lundgren stars as Frank Castle, a veteran cop who loses his entire family to a mafia car bomb. His ex-partner believes Castle survived the blast and became the Punisher, living in the sewers and exacting vigilante violence against mob bosses throughout the city. When the populace is caught in the midst of a gang war that he caused, Castle must again emerge from the shadows and save the innocent.

 

Directed byMark Goldblatt
Written byBoaz Yakin
Based on
Produced byRobert Mark Kamen
Starring
CinematographyIan Baker
Edited by
  • Tim Wellburn
Music byDennis Dreith
Production
companies
Distributed byLive Entertainment (North America)
New World International (international)
Release date
  • October 5, 1989 (West Germany)
  • April 25, 1991 (United States)
Running time
89 minutes[1]
Countries
  • United States
LanguageEnglish
Budget$9 million[2]


The Punisher 1989 x264 720p Esub BluRay Dual Audio English Hindi THE GOPI SAHI

Format                         : Matroska
Format version                 : Version 4
File size                      : 701 MiB
Duration                       : 1 h 29 min
Overall bit rate               : 1 100 kb/s
Movie name                     : The Punisher 1989 GOPI SAHI
Encoded date                   : UTC 2021-08-23 01:59:57

Video
ID                             : 1
Format                         : AVC
Format/Info                    : Advanced Video Codec
Format profile                 : [email protected]
Format settings                : CABAC / 5 Ref Frames
Format settings, CABAC         : Yes
Format settings, Reference fra : 5 frames
Codec ID                       : V_MPEG4/ISO/AVC
Duration                       : 1 h 29 min
Bit rate                       : 899 kb/s
Width                          : 1 280 pixels
Height                         : 690 pixels
Display aspect ratio           : 1.85:1
Frame rate mode                : Constant
Frame rate                     : 23.976 (24000/1001) FPS
Color space                    : YUV
Chroma subsampling             : 4:2:0
Bit depth                      : 8 bits
Scan type                      : Progressive
Bits/(Pixel*Frame)             : 0.042
Stream size                    : 572 MiB (82%)
Title                          : GOPI SAHI
Writing library                : x264 core 157 r2935 545de2f

Audio #1
ID                             : 2
Format                         : AAC LC
Format/Info                    : Advanced Audio Codec Low Complexity
Codec ID                       : A_AAC-2
Duration                       : 1 h 29 min
Bit rate                       : 96.0 kb/s
Channel(s)                     : 2 channels
Channel layout                 : L R
Sampling rate                  : 48.0 kHz
Frame rate                     : 46.875 FPS (1024 SPF)
Compression mode               : Lossy
Delay relative to video        : -21 ms
Stream size                    : 61.5 MiB (9%)
Title                          : GOPI SAHI
Language                       : Hindi
Default                        : Yes
Forced                         : No

Audio #2
ID                             : 3
Format                         : AAC LC
Format/Info                    : Advanced Audio Codec Low Complexity
Codec ID                       : A_AAC-2
Duration                       : 1 h 29 min
Bit rate                       : 96.0 kb/s
Channel(s)                     : 2 channels
Channel layout                 : L R
Sampling rate                  : 48.0 kHz
Frame rate                     : 46.875 FPS (1024 SPF)
Compression mode               : Lossy
Delay relative to video        : -21 ms
Stream size                    : 61.3 MiB (9%)
Title                          : GOPI SAHI
Language                       : English
Default                        : No
Forced                         : No

Text
ID                             : 4
Format                         : PGS
Muxing mode                    : zlib
Codec ID                       : S_HDMV/PGS
Codec ID/Info                  : Picture based subtitle format used on BDs/HD-DVDs
Duration                       : 1 h 21 min
Bit rate                       : 18.1 kb/s
Count of elements              : 1948
Stream size                    : 10.6 MiB (2%)
Title                          : GOPI SAHI
Language                       : English
Default                        : Yes
Forced                         : No

Menu
00:00:00.000                   : :Chapter 1
00:07:33.203                   : :Chapter 2
00:15:57.915                   : :Chapter 3
00:21:37.922                   : :Chapter 4
00:29:20.717                   : :Chapter 5
00:37:31.374                   : :Chapter 6
00:43:19.722                   : :Chapter 7
00:50:52.925                   : :Chapter 8
00:58:21.957                   : :Chapter 9
01:07:28.086                   : :Chapter 10
01:14:21.123                   : :Chapter 11
01:21:30.761                   : :Chapter 12




 MAGNET

TORRENT

TORRENT 2 PRIVATE

G-DRIVE FILE COPY

DOWNLOAD AUTO START IN 20 SEC

DOWNLOAD AND ONLINE TERA-BOX LINK

MEDIA-FIRE

MEGA NZ

DOSYA


TELEGRAM

MEGAUP


UPPIT

DROPBOX


MAILRU

DOWNLOAD AND ONLINE


ONLINE 720P

 

Post a Comment

0 Comments