The Son of No One 2011 x264 720p BluRay Dual Audio English Hindi THE GOPI SAHI

 

The Son of No One (2011)

R 11/04/2011 (US) DramaThrillerCrime 1h 30m 

Serve. Protect. Lie.

Overview

A rookie cop is assigned to the 118 Precinct in the same district where he grew up. The Precinct Captain starts receiving letters about two unsolved murders that happened many years ago in the housing projects when the rookie cop was just a kid. These letters bring back bad memories and old secrets that begin to threaten his career and break up his family.

 

Directed byDito Montiel
Written byDito Montiel
Produced by
Starring
CinematographyBenoit Delhomme
Edited byJake Pushinski
Music by
Production
companies
Distributed byHannibal Pictures
Millennium Films
Nu Image Films
Anchor Bay Films
Release date
  • January 28, 2011 (Sundance)
Running time
95 minutes
CountryUnited States
LanguageEnglish
Budget$15 million[1]
Box office$1.1 million[1]


 

The Son of No One 2011 x264 720p BluRay Dual Audio English Hindi THE GOPI SAHI

Format                         : Matroska
Format version                 : Version 4
File size                      : 734 MiB
Duration                       : 1 h 33 min
Overall bit rate               : 1 094 kb/s
Movie name                     : The Son of No One 2011 GOPI SAHI
Encoded date                   : UTC 2021-08-04 10:15:49

Video
ID                             : 1
Format                         : AVC
Format/Info                    : Advanced Video Codec
Format profile                 : [email protected]
Format settings                : CABAC / 5 Ref Frames
Format settings, CABAC         : Yes
Format settings, Reference fra : 5 frames
Codec ID                       : V_MPEG4/ISO/AVC
Duration                       : 1 h 33 min
Bit rate                       : 899 kb/s
Width                          : 1 280 pixels
Height                         : 544 pixels
Display aspect ratio           : 2.35:1
Frame rate mode                : Constant
Frame rate                     : 23.976 (24000/1001) FPS
Color space                    : YUV
Chroma subsampling             : 4:2:0
Bit depth                      : 8 bits
Scan type                      : Progressive
Bits/(Pixel*Frame)             : 0.054
Stream size                    : 603 MiB (82%)
Title                          : GOPI SAHI
Writing library                : x264 core 157 r2935 545de2f

Audio #1
ID                             : 2
Format                         : AAC LC
Format/Info                    : Advanced Audio Codec Low Complexity
Codec ID                       : A_AAC-2
Duration                       : 1 h 33 min
Bit rate                       : 96.0 kb/s
Channel(s)                     : 2 channels
Channel layout                 : L R
Sampling rate                  : 48.0 kHz
Frame rate                     : 46.875 FPS (1024 SPF)
Compression mode               : Lossy
Delay relative to video        : -21 ms
Stream size                    : 64.6 MiB (9%)
Title                          : GOPI SAHI
Language                       : Hindi
Default                        : Yes
Forced                         : No

Audio #2
ID                             : 3
Format                         : AAC LC
Format/Info                    : Advanced Audio Codec Low Complexity
Codec ID                       : A_AAC-2
Duration                       : 1 h 33 min
Bit rate                       : 96.0 kb/s
Channel(s)                     : 2 channels
Channel layout                 : L R
Sampling rate                  : 48.0 kHz
Frame rate                     : 46.875 FPS (1024 SPF)
Compression mode               : Lossy
Delay relative to video        : -21 ms
Stream size                    : 64.7 MiB (9%)
Title                          : GOPI SAHI
Language                       : English
Default                        : No
Forced                         : No





 

Post a Comment

0 Comments