Vita & Virginia 2019 x264 720p Esub BluRay Dual Audio English Hindi THE GOPI SAHI

Vita & Virginia (2019)

NR 05/02/2019 (UA) DramaRomance 1h 50m 

Overview

Socialite Vita Sackville-West and literary icon Virginia Woolf run in different circles in 1920s London. Despite the odds, the magnetic Vita and the beguiling Virginia forge an unconventional affair, set against the backdrop of their own strikingly contemporary marriages; which inspired one of Woolf's most iconic novels, 'Orlando'.

Directed byChanya Button
Written by
Based onVita & Virginia
by Eileen Atkins
Produced by
  • Evangelo Kioussis
  • Katie Holly
  • Shashank Shambharkar
Starring
CinematographyCarlos De Carvalho
Edited byMark Trend
Music byIsobel Waller-Bridge
Production
companies
Distributed byThunderbird Releasing
Release date
  • 11 September 2018 (TIFF)
  • 5 July 2019 (United Kingdom and Ireland)
Running time
110 minutes
Countries
  • United Kingdom
  • Ireland
LanguageEnglish
Box office$789,095[1]


Vita & Virginia 2018 x264 720p Esub BluRay Dual Audio English Hindi THE GOPI SAHI


Format                         : Matroska
Format version                 : Version 4
File size                      : 1 020 MiB
Duration                       : 1 h 50 min
Overall bit rate               : 1 295 kb/s
Movie name                     : Vita & Virginia 2018 GOPI SAHI
Encoded date                   : UTC 2021-08-08 19:20:49

Video
ID                             : 1
Format                         : AVC
Format/Info                    : Advanced Video Codec
Format profile                 : [email protected]
Format settings                : CABAC / 5 Ref Frames
Format settings, CABAC         : Yes
Format settings, Reference fra : 5 frames
Codec ID                       : V_MPEG4/ISO/AVC
Duration                       : 1 h 50 min
Bit rate                       : 899 kb/s
Width                          : 1 280 pixels
Height                         : 690 pixels
Display aspect ratio           : 1.85:1
Frame rate mode                : Constant
Frame rate                     : 23.786 FPS
Color space                    : YUV
Chroma subsampling             : 4:2:0
Bit depth                      : 8 bits
Scan type                      : Progressive
Bits/(Pixel*Frame)             : 0.043
Stream size                    : 708 MiB (69%)
Title                          : GOPI SAHI
Writing library                : x264 core 157 r2935 545de2f

Audio #1
ID                             : 2
Format                         : AAC LC
Format/Info                    : Advanced Audio Codec Low Complexity
Codec ID                       : A_AAC-2
Duration                       : 1 h 50 min
Bit rate                       : 192 kb/s
Channel(s)                     : 6 channels
Channel layout                 : C L R Ls Rs LFE
Sampling rate                  : 48.0 kHz
Frame rate                     : 46.875 FPS (1024 SPF)
Compression mode               : Lossy
Delay relative to video        : 2 ms
Stream size                    : 151 MiB (15%)
Title                          : GOPI SAHI
Language                       : Hindi
Default                        : Yes
Forced                         : No

Audio #2
ID                             : 3
Format                         : AAC LC
Format/Info                    : Advanced Audio Codec Low Complexity
Codec ID                       : A_AAC-2
Duration                       : 1 h 50 min
Bit rate                       : 192 kb/s
Channel(s)                     : 6 channels
Channel layout                 : C L R Ls Rs LFE
Sampling rate                  : 48.0 kHz
Frame rate                     : 46.875 FPS (1024 SPF)
Compression mode               : Lossy
Delay relative to video        : -21 ms
Stream size                    : 152 MiB (15%)
Title                          : GOPI SAHI
Language                       : English
Default                        : No
Forced                         : No

Text
ID                             : 4
Format                         : PGS
Muxing mode                    : zlib
Codec ID                       : S_HDMV/PGS
Codec ID/Info                  : Picture based subtitle format used on BDs/HD-DVDs
Duration                       : 1 h 42 min
Bit rate                       : 30.4 kb/s
Count of elements              : 2644
Stream size                    : 22.4 MiB (2%)
Title                          : GOPI SAHI
Language                       : English
Default                        : Yes
Forced                         : No

Menu
00:00:00.000                   : :Chapter 1
00:06:55.670                   : :Chapter 2
00:13:37.423                   : :Chapter 3
00:22:20.048                   : :Chapter 4
00:34:17.411                   : :Chapter 5
00:48:27.375                   : :Chapter 6
01:00:35.165                   : :Chapter 7
01:05:07.471                   : :Chapter 8
01:13:21.213                   : :Chapter 9
01:29:31.333                   : :Chapter 10
01:36:08.210                   : :Chapter 11
01:44:28.384                   : :Chapter 12




 MAGNET

TORRENT

TORRENT 2 PRIVATE

G-DRIVE FILE COPY

DOWNLOAD AUTO START IN 20 SEC

DOWNLOAD AND ONLINE TERA-BOX LINK

MEDIA-FIRE

MEGA NZ

DOSYA

DROPBOX


MAILRU


DOWNLOAD AND ONLINE


ONLINE 720P

 

Post a Comment

0 Comments