Bhoot Police 2021 x264 720p WebHD Esub Hindi THE GOPI SAHI

 

Bhoot Police (2021)

UA 09/10/2021 (IN) AdventureHorrorComedy 2h 9m 
 

Overview

Two brothers Vibhooti and Chiraunji have fought their share of ghosts. However, a new case in a remote village forces them to rethink their own abilities and beliefs.


 


Bhoot Police 2021 x264 720p WebHD Esub Hindi THE GOPI SAHI


Format                         : Matroska
Format version                 : Version 4
File size                      : 1 005 MiB
Duration                       : 2 h 8 min
Overall bit rate               : 1 093 kb/s
Movie name                     : Bhoot Police 2021 GOPI SAHI
Encoded date                   : UTC 2021-09-10 08:12:55

Video
ID                             : 1
Format                         : AVC
Format/Info                    : Advanced Video Codec
Format profile                 : [email protected]
Format settings                : CABAC / 12 Ref Frames
Format settings, CABAC         : Yes
Format settings, Reference fra : 12 frames
Codec ID                       : V_MPEG4/ISO/AVC
Duration                       : 2 h 8 min
Bit rate                       : 899 kb/s
Width                          : 1 280 pixels
Height                         : 534 pixels
Display aspect ratio           : 2.40:1
Frame rate mode                : Constant
Frame rate                     : 24.000 FPS
Color space                    : YUV
Chroma subsampling             : 4:2:0
Bit depth                      : 8 bits
Scan type                      : Progressive
Bits/(Pixel*Frame)             : 0.055
Stream size                    : 827 MiB (82%)
Title                          : GOPI SAHI
Writing library                : x264 core 163 r3059 b684ebe0

Audio
ID                             : 2
Format                         : AAC LC
Format/Info                    : Advanced Audio Codec Low Complexity
Codec ID                       : A_AAC-2
Duration                       : 2 h 8 min
Bit rate                       : 192 kb/s
Channel(s)                     : 6 channels
Channel layout                 : C L R Ls Rs LFE
Sampling rate                  : 48.0 kHz
Frame rate                     : 46.875 FPS (1024 SPF)
Compression mode               : Lossy
Delay relative to video        : -21 ms
Stream size                    : 176 MiB (18%)
Title                          : GOPI SAHI
Language                       : Hindi
Default                        : Yes
Forced                         : No

Text
ID                             : 3
Format                         : UTF-8
Codec ID                       : S_TEXT/UTF8
Codec ID/Info                  : UTF-8 Plain Text
Duration                       : 2 h 5 min
Bit rate                       : 47 b/s
Count of elements              : 1604
Stream size                    : 43.8 KiB (0%)
Title                          : GOPI SAHI
Language                       : English
Default                        : Yes
Forced                         : No




MAGNET

TORRENT

TORRENT 2 PRIVATE


SHARER-G-DRIVE FILE COPY

G-TOT-G-DRIVE FILE COPY


DOWNLOAD AUTO START IN 20 SEC

DOWNLOAD AND ONLINE TERA-BOX LINK

MEDIA-FIRE


MEGA NZ

DOSYA

DOWNLOAD AND ONLINE

ONLINE 720P

 

Post a Comment

0 Comments