Dark Desire S01 2021 x264 720p WebHD Hindi THE GOPI SAHI

Dark Desire S01 2021 x264 720p WebHD Esub Hindi THE GOPI SAHI

SpanishOscuro deseo
Genre
Created byLeticia López Margalli
Written by
  • Nayura Aragón
  • Gennys Pérez
  • Leticia López Margalli
Directed by
  • Pedro P. Ybarra[1]
  • Kenya Márquez[1]
Starring
ComposerGiovanni Rotondo
Country of originMexico
Original languageSpanish
No. of seasons1
No. of episodes18
Production
Executive producerPatricia Benítez Laucin
Producers
  • Verónica Velasco
  • Epigmenio Ibarra
  • Natasha Ybarra-Klor
Cinematography
  • Juan Pablo Ojeda
  • Jerónimo Rodríguez
Editors
  • Luis Zerón Rugerio
  • Kevin López Yáñez
Running time30–39 minutes
Production companyArgos Comunicación[1]
DistributorNetflix
Release
Original networkNetflix
Original release15 July 2020 –
present

 


Dark Desire S01 2021 x264 720p WebHD Esub Hindi THE GOPI SAHI


Format                         : Matroska
Format version                 : Version 4
File size                      : 4.06 GiB
Duration                       : 10 h 2 min
Overall bit rate               : 966 kb/s
Movie name                     : Dark Desire S01 2021 GOPI SAHI
Encoded date                   : UTC 2021-09-15 06:03:09

Video
Format                         : AVC
Format/Info                    : Advanced Video Codec
Format profile                 : [email protected]
Format settings                : 2 Ref Frames
Format settings, CABAC         : No
Format settings, Reference fra : 2 frames
Codec ID                       : V_MPEG4/ISO/AVC
Duration                       : 10 h 2 min
Bit rate                       : 900 kb/s
Width                          : 1 280 pixels
Height                         : 720 pixels
Display aspect ratio           : 16:9
Frame rate mode                : Constant
Frame rate                     : 23.976 (23976/1000) FPS
Color space                    : YUV
Chroma subsampling             : 4:2:0
Bit depth                      : 8 bits
Scan type                      : Progressive
Bits/(Pixel*Frame)             : 0.041
Stream size                    : 3.66 GiB (90%)
Title                          : GOPI SAHI
Writing library                : x264 core 157 r2970 5493be8

Audio
ID                             : 2
Format                         : AAC LC
Format/Info                    : Advanced Audio Codec Low Complexity
Codec ID                       : A_AAC-2
Duration                       : 10 h 2 min
Bit rate                       : 96.0 kb/s
Channel(s)                     : 2 channels
Channel layout                 : L R
Sampling rate                  : 48.0 kHz
Frame rate                     : 46.875 FPS (1024 SPF)
Compression mode               : Lossy
Delay relative to video        : -21 ms
Stream size                    : 409 MiB (10%)
Title                          : GOPI SAHI
Language                       : Hindi

 




 MAGNET

TORRENT


TORRENT 2 PRIVATE

TORRENT 3

SHARER-G-DRIVE FILE COPY


G-TOT-G-DRIVE FILE COPY

DOWNLOAD AUTO START IN 20 SEC

MEDIA-FIRE

MEGA NZ

DOWNLOAD AND ONLINE


ONLINE 720P


 1


2


3


 

4

Post a Comment

0 Comments