Firedrake The Silver Dragon 2021 x264 720p WebHD Esub English Hindi THE GOPI SAHI

Firedrake the Silver Dragon (2020)

0 10/15/2020 (DE) AnimationFamilyAdventureFantasy 1h 40m 

We are flying carbon neutral.

Overview

An unlikely trio of heroes – a dragon, a boy and a forest brownie – embark on an epic adventure to find the “Rim of Heaven” - the mythological safe haven for all dragons.

GermanDrachenreiter
Directed byTomer Eshed
Written byJohnny Smith
Based onDragon Rider
by Cornelia Funke
Produced by
Starring
CinematographyOlaf Aue
Music byStefan Maria Schneider
Production
companies
Distributed byConstantin Film
Release date
  • 1 October 2020 (Germany)
Running time
92 minutes
CountryGermany
LanguageEnglish
Box office$6.4 million[1]

 


Firedrake The Silver Dragon 2021 x264 720p WebHD Esub English Hindi THE GOPI SAHI


Format                         : Matroska
Format version                 : Version 4
File size                      : 853 MiB
Duration                       : 1 h 33 min
Overall bit rate               : 1 279 kb/s
Movie name                     : Firedrake The Silver Dragon 2021 GOPI SAHI
Encoded date                   : UTC 2021-09-11 01:36:39

Video
ID                             : 1
Format                         : AVC
Format/Info                    : Advanced Video Codec
Format profile                 : [email protected]
Format settings                : CABAC / 12 Ref Frames
Format settings, CABAC         : Yes
Format settings, Reference fra : 12 frames
Codec ID                       : V_MPEG4/ISO/AVC
Duration                       : 1 h 33 min
Bit rate                       : 899 kb/s
Width                          : 1 280 pixels
Height                         : 534 pixels
Display aspect ratio           : 2.40:1
Frame rate mode                : Constant
Frame rate                     : 24.000 FPS
Color space                    : YUV
Chroma subsampling             : 4:2:0
Bit depth                      : 8 bits
Scan type                      : Progressive
Bits/(Pixel*Frame)             : 0.055
Stream size                    : 599 MiB (70%)
Title                          : GOPI SAHI
Writing library                : x264 core 163 r3059 b684ebe0

Audio #1
ID                             : 2
Format                         : AAC LC
Format/Info                    : Advanced Audio Codec Low Complexity
Codec ID                       : A_AAC-2
Duration                       : 1 h 33 min
Bit rate                       : 192 kb/s
Channel(s)                     : 6 channels
Channel layout                 : C L R Ls Rs LFE
Sampling rate                  : 48.0 kHz
Frame rate                     : 46.875 FPS (1024 SPF)
Compression mode               : Lossy
Delay relative to video        : -21 ms
Stream size                    : 126 MiB (15%)
Title                          : GOPI SAHI
Language                       : Hindi
Default                        : Yes
Forced                         : No

Audio #2
ID                             : 3
Format                         : AAC LC
Format/Info                    : Advanced Audio Codec Low Complexity
Codec ID                       : A_AAC-2
Duration                       : 1 h 33 min
Bit rate                       : 192 kb/s
Channel(s)                     : 6 channels
Channel layout                 : C L R Ls Rs LFE
Sampling rate                  : 48.0 kHz
Frame rate                     : 46.875 FPS (1024 SPF)
Compression mode               : Lossy
Delay relative to video        : -21 ms
Stream size                    : 126 MiB (15%)
Title                          : GOPI SAHI
Language                       : English
Default                        : No
Forced                         : No

Text
Language                       : English




 MAGNET

TORRENT

TORRENT 2 PRIVATE

SHARER-G-DRIVE FILE COPY

G-TOT-G-DRIVE FILE COPY


DOWNLOAD AUTO START IN 20 SEC

DOWNLOAD AND ONLINE TERA-BOX LINK

MEDIA-FIRE

MEGA NZ

DOSYA

DOWNLOAD AND ONLINE

ONLINE 720P

 

Post a Comment

0 Comments