I Know What You Did Last Summer 1997 x264 720p Esub BluRay Dual Audio English Hindi GOPI SAHI

I Know What You Did Last Summer (1997)

R 10/17/1997 (US) HorrorThrillerMystery 1h 40m 

If you're going to bury the truth, make sure it stays buried.

Overview

As they celebrate their high school graduation, four friends are involved in a hit-and-run accident when their car hits and apparently kills a pedestrian on an isolated roadway. They dispose of the body and vow to keep the incident a secret, a year later somebody starts sending them letters bearing the warning "I Know What You Did Last Summer".

 
Directed byJim Gillespie
Screenplay byKevin Williamson
Based onI Know What You Did Last Summer
by Lois Duncan
Produced by
Starring
CinematographyDenis Crossan
Edited bySteve Mirkovich
Music byJohn Debney
Production
company
Distributed byColumbia Pictures[1]
Release date
  • October 17, 1997[2]
Running time
101 minutes
CountryUnited States
LanguageEnglish
Budget$17 million[3][4]
Box office$125.3 million[3]

 


I Know What You Did Last Summer 1997 x264 720p Esub BluRay Dual Audio English Hindi GOPI SAHI


Format                         : Matroska
Format version                 : Version 4
File size                      : 943 MiB
Duration                       : 1 h 40 min
Overall bit rate               : 1 308 kb/s
Movie name                     : 1 I Know What You Did Last Summer 1997 GOPI SAHI
Encoded date                   : UTC 2021-09-02 13:25:07

Video
ID                             : 1
Format                         : AVC
Format/Info                    : Advanced Video Codec
Format profile                 : [email protected]
Format settings                : CABAC / 12 Ref Frames
Format settings, CABAC         : Yes
Format settings, Reference fra : 12 frames
Codec ID                       : V_MPEG4/ISO/AVC
Duration                       : 1 h 40 min
Bit rate                       : 899 kb/s
Width                          : 1 280 pixels
Height                         : 534 pixels
Display aspect ratio           : 2.40:1
Frame rate mode                : Constant
Frame rate                     : 23.976 (24000/1001) FPS
Color space                    : YUV
Chroma subsampling             : 4:2:0
Bit depth                      : 8 bits
Scan type                      : Progressive
Bits/(Pixel*Frame)             : 0.055
Stream size                    : 648 MiB (69%)
Title                          : GOPI SAHI
Writing library                : x264 core 163 r3059 b684ebe0

Audio #1
ID                             : 2
Format                         : AAC LC
Format/Info                    : Advanced Audio Codec Low Complexity
Codec ID                       : A_AAC-2
Duration                       : 1 h 40 min
Bit rate                       : 192 kb/s
Channel(s)                     : 6 channels
Channel layout                 : C L R Ls Rs LFE
Sampling rate                  : 48.0 kHz
Frame rate                     : 46.875 FPS (1024 SPF)
Compression mode               : Lossy
Delay relative to video        : 2 s 129 ms
Stream size                    : 139 MiB (15%)
Title                          : GOPI SAHI
Language                       : Hindi
Default                        : Yes
Forced                         : No

Audio #2
ID                             : 3
Format                         : AAC LC
Format/Info                    : Advanced Audio Codec Low Complexity
Codec ID                       : A_AAC-2
Duration                       : 1 h 40 min
Bit rate                       : 192 kb/s
Channel(s)                     : 6 channels
Channel layout                 : C L R Ls Rs LFE
Sampling rate                  : 48.0 kHz
Frame rate                     : 46.875 FPS (1024 SPF)
Compression mode               : Lossy
Delay relative to video        : -21 ms
Stream size                    : 139 MiB (15%)
Title                          : GOPI SAHI
Language                       : English
Default                        : No
Forced                         : No

Text #1
ID                             : 4
ID in the original source medi : 4618 (0x120A)
Format                         : PGS
Muxing mode                    : zlib
Codec ID                       : S_HDMV/PGS
Codec ID/Info                  : Picture based subtitle format used on BDs/HD-DVDs
Duration                       : 1 h 32 min
Bit rate                       : 25.0 kb/s
Count of elements              : 1670
Stream size                    : 16.5 MiB (2%)
Title                          : GOPI SAHI
Language                       : Hindi
Default                        : No
Forced                         : No
Original source medium         : Blu-ray

Text #2
ID                             : 5
ID in the original source medi : 4608 (0x1200)
Format                         : PGS
Muxing mode                    : zlib
Codec ID                       : S_HDMV/PGS
Codec ID/Info                  : Picture based subtitle format used on BDs/HD-DVDs
Duration                       : 1 h 31 min
Bit rate                       : 27.0 kb/s
Count of elements              : 1634
Stream size                    : 17.6 MiB (2%)
Title                          : GOPI SAHI
Language                       : English
Default                        : No
Forced                         : No
Original source medium         : Blu-ray

Menu
00:00:00.000                   : :Chapter 1
00:08:40.562                   : :Chapter 2
00:13:02.615                   : :Chapter 3
00:20:24.974                   : :Chapter 4
00:22:53.747                   : :Chapter 5
00:25:24.314                   : :Chapter 6
00:37:10.687                   : :Chapter 7
00:42:31.549                   : :Chapter 8
00:46:43.634                   : :Chapter 9
00:53:11.730                   : :Chapter 10
01:00:57.654                   : :Chapter 11
01:08:02.328                   : :Chapter 12
01:12:46.571                   : :Chapter 13
01:18:58.734                   : :Chapter 14
01:24:47.958                   : :Chapter 15
01:31:50.380                   : :Chapter 16




 MAGNET

TORRENT

TORRENT 2 PRIVATE


SHARER-G-DRIVE FILE COPY

G-TOT-G-DRIVE FILE COPY


DOWNLOAD AUTO START IN 20 SEC

DOWNLOAD AND ONLINE TERA-BOX LINK

MEDIA-FIRE

MEGA NZ

DOSYA

DROPBOX

DOWNLOAD AND ONLINE


ONLINE 720P

 

Post a Comment

0 Comments