I Still Know What You Did Last Summer 1998 x264 720p Esub BluRay Dual Audio English Hindi GOPI SAHI

 

I Still Know What You Did Last Summer (1998)

R 11/13/1998 (US) HorrorMysteryThriller 1h 40m 
 

Someone is dying for a second chance.

Overview

Unfinished business with coed Julie James brings the murderer to the Bahamas to terrorize her and her friends, Karla, Tyrell and Will, during a vacation. Can Ray Bronson who survived a bloody attack alongside Julie two summers ago, get to the island in time to save everyone?

Directed byDanny Cannon
Written byTrey Callaway
Based onCharacters
by Lois Duncan
Produced by
Starring
CinematographyVernon Layton
Edited byPeck Prior
Music byJohn Frizzell
Production
companies
Distributed bySony Pictures Releasing
Release date
  • November 13, 1998
Running time
101 minutes
Countries
LanguageEnglish
Budget$24 million[3]
Box office$84 million[4]

 

I Still Know What You Did Last Summer 1998 x264 720p Esub BluRay Dual Audio English Hindi GOPI SAHI


Format                         : Matroska
Format version                 : Version 4
File size                      : 803 MiB
Duration                       : 1 h 40 min
Overall bit rate               : 1 116 kb/s
Movie name                     : 2 I Still Know What You Did Last Summer 1998 GOPI SAHI
Encoded date                   : UTC 2021-09-02 13:26:50

Video
ID                             : 1
Format                         : AVC
Format/Info                    : Advanced Video Codec
Format profile                 : [email protected]
Format settings                : CABAC / 12 Ref Frames
Format settings, CABAC         : Yes
Format settings, Reference fra : 12 frames
Codec ID                       : V_MPEG4/ISO/AVC
Duration                       : 1 h 40 min
Bit rate                       : 899 kb/s
Width                          : 1 280 pixels
Height                         : 534 pixels
Display aspect ratio           : 2.40:1
Frame rate mode                : Constant
Frame rate                     : 23.976 (24000/1001) FPS
Color space                    : YUV
Chroma subsampling             : 4:2:0
Bit depth                      : 8 bits
Scan type                      : Progressive
Bits/(Pixel*Frame)             : 0.055
Stream size                    : 646 MiB (80%)
Title                          : GOPI SAHI
Writing library                : x264 core 163 r3059 b684ebe0

Audio #1
ID                             : 2
Format                         : AAC LC
Format/Info                    : Advanced Audio Codec Low Complexity
Codec ID                       : A_AAC-2
Duration                       : 1 h 40 min
Bit rate                       : 96.0 kb/s
Channel(s)                     : 2 channels
Channel layout                 : L R
Sampling rate                  : 48.0 kHz
Frame rate                     : 46.875 FPS (1024 SPF)
Compression mode               : Lossy
Delay relative to video        : -21 ms
Stream size                    : 69.2 MiB (9%)
Title                          : GOPI SAHI
Language                       : Hindi
Default                        : Yes
Forced                         : No

Audio #2
ID                             : 3
Format                         : AAC LC
Format/Info                    : Advanced Audio Codec Low Complexity
Codec ID                       : A_AAC-2
Duration                       : 1 h 40 min
Bit rate                       : 96.0 kb/s
Channel(s)                     : 2 channels
Channel layout                 : L R
Sampling rate                  : 48.0 kHz
Frame rate                     : 46.875 FPS (1024 SPF)
Compression mode               : Lossy
Delay relative to video        : -21 ms
Stream size                    : 69.4 MiB (9%)
Title                          : GOPI SAHI
Language                       : English
Default                        : No
Forced                         : No

Text #1
ID                             : 4
ID in the original source medi : 4619 (0x120B)
Format                         : PGS
Muxing mode                    : zlib
Codec ID                       : S_HDMV/PGS
Codec ID/Info                  : Picture based subtitle format used on BDs/HD-DVDs
Duration                       : 1 h 33 min
Bit rate                       : 21.8 kb/s
Count of elements              : 1347
Stream size                    : 14.6 MiB (2%)
Title                          : GOPI SAHI
Language                       : Hindi
Default                        : No
Forced                         : No
Original source medium         : Blu-ray

Text #2
ID                             : 5
ID in the original source medi : 4608 (0x1200)
Format                         : PGS
Muxing mode                    : zlib
Codec ID                       : S_HDMV/PGS
Codec ID/Info                  : Picture based subtitle format used on BDs/HD-DVDs
Duration                       : 1 h 34 min
Bit rate                       : 30.2 kb/s
Count of elements              : 2044
Stream size                    : 20.4 MiB (3%)
Title                          : GOPI SAHI
Language                       : English
Default                        : Yes
Forced                         : No
Original source medium         : Blu-ray

Menu
00:00:00.000                   : :Chapter 1
00:05:34.626                   : :Chapter 2
00:12:37.423                   : :Chapter 3
00:20:10.960                   : :Chapter 4
00:25:52.134                   : :Chapter 5
00:33:10.197                   : :Chapter 6
00:35:35.133                   : :Chapter 7
00:44:11.941                   : :Chapter 8
00:53:23.409                   : :Chapter 9
01:01:34.733                   : :Chapter 10
01:08:34.986                   : :Chapter 11
01:17:02.618                   : :Chapter 12
01:21:26.340                   : :Chapter 13
01:26:25.222                   : :Chapter 14
01:30:27.464                   : :Chapter 15
01:33:13.129                   : :Chapter 16





 MAGNET

TORRENT

TORRENT 2 PRIVATE


SHARER-G-DRIVE FILE COPY

G-TOT-G-DRIVE FILE COPY

DOWNLOAD AUTO START IN 20 SEC

DOWNLOAD AND ONLINE TERA-BOX LINK

MEDIA-FIRE

MEGA NZ

DOSYA


DROPBOX


DOWNLOAD AND ONLINE

ONLINE 720P

 

Post a Comment

0 Comments