I'll Always Know What You Did Last Summer 2006 x264 720p Esub BluRay Dual Audio English Hindi GOPI SAHI

 

What he knows might kill you…

Overview

Several teenagers in a small-town in Colorado concoct a July 4th prank based on a frightening legend that goes awry when their friend ends up accidentally killed; however, the teens agree to keep their involvement a secret from the authorities, who continue to search for the man who apparently killed their friend. A year later, with the July 4th celebration coming up again, the teenagers realize that they're being stalked by someone who clearly intends on keeping the horrible legend alive by killing them off.

 

Directed bySylvain White
Written byMichael D. Weiss
Based onCharacters
by Lois Duncan
Produced by
Starring
CinematographyStephen M. Katz
Edited byDavid Checel
Music byJustin Burnett
Production
companies
Distributed bySony Pictures Home Entertainment
Release date
  • August 15, 2006
Running time
92 minutes
CountryUnited States
LanguageEnglish



I'll Always Know What You Did Last Summer 2006 x264 720p Esub BluRay Dual Audio English Hindi GOPI SAHI


Format                         : Matroska
Format version                 : Version 4
File size                      : 738 MiB
Duration                       : 1 h 32 min
Overall bit rate               : 1 116 kb/s
Movie name                     : 3 I'll Always Know What You Did Last Summer 2006 GOPI SAHI
Encoded date                   : UTC 2021-09-02 13:28:32

Video
ID                             : 1
Format                         : AVC
Format/Info                    : Advanced Video Codec
Format profile                 : [email protected]
Format settings                : CABAC / 12 Ref Frames
Format settings, CABAC         : Yes
Format settings, Reference fra : 12 frames
Codec ID                       : V_MPEG4/ISO/AVC
Duration                       : 1 h 32 min
Bit rate                       : 899 kb/s
Width                          : 1 280 pixels
Height                         : 534 pixels
Display aspect ratio           : 1.85:1
Frame rate mode                : Constant
Frame rate                     : 23.976 (24000/1001) FPS
Color space                    : YUV
Chroma subsampling             : 4:2:0
Bit depth                      : 8 bits
Scan type                      : Progressive
Bits/(Pixel*Frame)             : 0.055
Stream size                    : 594 MiB (81%)
Title                          : GOPI SAHI
Writing library                : x264 core 163 r3059 b684ebe0

Audio #1
ID                             : 2
Format                         : AAC LC
Format/Info                    : Advanced Audio Codec Low Complexity
Codec ID                       : A_AAC-2
Duration                       : 1 h 32 min
Bit rate                       : 96.0 kb/s
Channel(s)                     : 2 channels
Channel layout                 : L R
Sampling rate                  : 48.0 kHz
Frame rate                     : 46.875 FPS (1024 SPF)
Compression mode               : Lossy
Delay relative to video        : 9 ms
Stream size                    : 63.7 MiB (9%)
Title                          : GOPI SAHI
Language                       : Hindi
Default                        : Yes
Forced                         : No

Audio #2
ID                             : 3
Format                         : AAC LC
Format/Info                    : Advanced Audio Codec Low Complexity
Codec ID                       : A_AAC-2
Duration                       : 1 h 32 min
Bit rate                       : 96.0 kb/s
Channel(s)                     : 2 channels
Channel layout                 : L R
Sampling rate                  : 48.0 kHz
Frame rate                     : 46.875 FPS (1024 SPF)
Compression mode               : Lossy
Delay relative to video        : -21 ms
Stream size                    : 63.7 MiB (9%)
Title                          : GOPI SAHI
Language                       : English
Default                        : No
Forced                         : No

Text
ID                             : 4
ID in the original source medi : 4608 (0x1200)
Format                         : PGS
Muxing mode                    : zlib
Codec ID                       : S_HDMV/PGS
Codec ID/Info                  : Picture based subtitle format used on BDs/HD-DVDs
Duration                       : 1 h 26 min
Bit rate                       : 35.4 kb/s
Count of elements              : 1916
Stream size                    : 21.9 MiB (3%)
Title                          : GOPI SAHI
Language                       : English
Default                        : No
Forced                         : No
Original source medium         : Blu-ray




 MAGNET

TORRENT


TORRENT 2 PRIVATE

SHARER-G-DRIVE FILE COPY


G-TOT-G-DRIVE FILE COPY

DOWNLOAD AUTO START IN 20 SEC


DOWNLOAD AND ONLINE TERA-BOX LINK

MEDIA-FIRE


MEGA NZ


DOSYA

DROPBOX

DOWNLOAD AND ONLINE

ONLINE 720P

 

Post a Comment

0 Comments