Kate 2021 x264 720p WebHD Esub English Hindi THE GOPI SAHI

 

Kate (2021)

R 09/10/2021 (US) ActionThriller 1h 46m 

There's no time for mercy.

Overview

After she’s irreversibly poisoned, a ruthless criminal operative has less than 24 hours to exact revenge on her enemies and in the process forms an unexpected bond with the daughter of one of her past victims.

Directed byCedric Nicolas-Troyan
Written byUmair Aleem
Produced by
Starring
CinematographyLyle Vincent
Edited by
  • Sandra Montiel
  • El√≠sabet Ronaldsd√≥ttir
Music byNathan Barr
Production
companies
Distributed byNetflix
Release date
  • September 10, 2021
Running time
106 minutes
CountryUnited States
LanguageEnglish


Kate 2021 x264 720p WebHD Esub English Hindi THE GOPI SAHI


Format                         : Matroska
Format version                 : Version 4
File size                      : 1.08 GiB
Duration                       : 1 h 46 min
Overall bit rate               : 1 455 kb/s
Movie name                     : Kate 2021 GOPI SAHI
Encoded date                   : UTC 2021-09-10 15:50:29

Video #1
ID                             : 1
Format                         : AVC
Format/Info                    : Advanced Video Codec
Format profile                 : [email protected]
Format settings                : CABAC / 12 Ref Frames
Format settings, CABAC         : Yes
Format settings, Reference fra : 12 frames
Codec ID                       : V_MPEG4/ISO/AVC
Duration                       : 1 h 46 min
Bit rate                       : 899 kb/s
Width                          : 1 280 pixels
Height                         : 534 pixels
Display aspect ratio           : 2.092
Frame rate mode                : Constant
Frame rate                     : 24.000 FPS
Color space                    : YUV
Chroma subsampling             : 4:2:0
Bit depth                      : 8 bits
Scan type                      : Progressive
Bits/(Pixel*Frame)             : 0.055
Stream size                    : 683 MiB (62%)
Title                          : GOPI SAHI
Writing library                : x264 core 163 r3059 b684ebe0
Matrix coefficients            : BT.709

Video #2
ID                             : 3
Format                         : AVC
Format/Info                    : Advanced Video Codec
Format profile                 : [email protected]
Format settings                : 1 Ref Frames
Format settings, CABAC         : No
Format settings, Reference fra : 1 frame
Codec ID                       : V_MPEG4/ISO/AVC
Duration                       : 1 h 46 min
Bit rate                       : 361 kb/s
Nominal bit rate               : 384 kb/s
Width                          : 200 pixels
Height                         : 84 pixels
Display aspect ratio           : 2.078
Frame rate mode                : Constant
Frame rate                     : 24.000 FPS
Color space                    : YUV
Chroma subsampling             : 4:2:0
Bit depth                      : 8 bits
Scan type                      : Progressive
Bits/(Pixel*Frame)             : 0.894
Stream size                    : 274 MiB (25%)
Title                          : GOPI SAHI
Writing library                : x264 core 163 r3059 b684ebe0

Audio
ID                             : 2
Format                         : AAC LC
Format/Info                    : Advanced Audio Codec Low Complexity
Codec ID                       : A_AAC-2
Duration                       : 1 h 46 min
Bit rate                       : 192 kb/s
Channel(s)                     : 6 channels
Channel layout                 : C L R Ls Rs LFE
Sampling rate                  : 48.0 kHz
Frame rate                     : 46.875 FPS (1024 SPF)
Compression mode               : Lossy
Delay relative to video        : -21 ms
Stream size                    : 146 MiB (13%)
Title                          : GOPI SAHI
Language                       : Hindi
Default                        : Yes
Forced                         : No

Text
Language                       : English




MAGNET


TORRENT

TORRENT 2 PRIVATE

TORRENT 3

SHARER-G-DRIVE FILE COPY

G-TOT-G-DRIVE FILE COPY

DOWNLOAD AUTO START IN 20 SEC

DOWNLOAD AND ONLINE TERA-BOX LINK

MEDIA-FIRE

MEGA NZ

DOWNLOAD AND ONLINE

ONLINE 720P

 

Post a Comment

0 Comments