Malignant 2021 x264 720p WebHD Esub English Hindi THE GOPI SAHI

 

Malignant (2021)

R 09/10/2021 (US) HorrorThriller 1h 51m 

A new vision of terror.

Overview

Madison is paralyzed by shocking visions of grisly murders, and her torment worsens as she discovers that these waking dreams are in fact terrifying realities.

Directed byJames Wan
Screenplay byAkela Cooper
Story by
Produced by
  • James Wan
  • Michael Clear
Starring
CinematographyMichael Burgess
Edited byKirk Morri
Music byJoseph Bishara
Production
companies
Distributed byWarner Bros. Pictures
Release date
  • September 10, 2021 (United States)
Running time
111 minutes
CountryUnited States
LanguageEnglish
Budget$40 million[1]
Box office$15.1 million[2][3]


Malignant 2021 x264 720p WebHD Esub English Hindi THE GOPI SAHI


Format                         : Matroska
Format version                 : Version 4
File size                      : 950 MiB
Duration                       : 1 h 51 min
Overall bit rate               : 1 190 kb/s
Movie name                     : Malignant 2021 GOPI SAHI
Encoded date                   : UTC 2021-09-13 01:30:22

Video
ID                             : 1
Format                         : AVC
Format/Info                    : Advanced Video Codec
Format profile                 : [email protected]
Format settings                : CABAC / 12 Ref Frames
Format settings, CABAC         : Yes
Format settings, Reference fra : 12 frames
Codec ID                       : V_MPEG4/ISO/AVC
Duration                       : 1 h 51 min
Bit rate                       : 899 kb/s
Width                          : 1 280 pixels
Height                         : 534 pixels
Display aspect ratio           : 2.40:1
Frame rate mode                : Constant
Frame rate                     : 23.976 (24000/1001) FPS
Color space                    : YUV
Chroma subsampling             : 4:2:0
Bit depth                      : 8 bits
Scan type                      : Progressive
Bits/(Pixel*Frame)             : 0.055
Stream size                    : 717 MiB (75%)
Title                          : GOPI SAHI
Writing library                : x264 core 163 r3059 b684ebe0

Audio #1
ID                             : 2
Format                         : AAC LC
Format/Info                    : Advanced Audio Codec Low Complexity
Codec ID                       : A_AAC-2
Duration                       : 1 h 51 min
Bit rate                       : 96.0 kb/s
Channel(s)                     : 2 channels
Channel layout                 : L R
Sampling rate                  : 48.0 kHz
Frame rate                     : 46.875 FPS (1024 SPF)
Compression mode               : Lossy
Delay relative to video        : -64 ms
Stream size                    : 77.0 MiB (8%)
Title                          : GOPI SAHI
Language                       : Hindi
Default                        : Yes
Forced                         : No

Audio #2
ID                             : 3
Format                         : AAC LC
Format/Info                    : Advanced Audio Codec Low Complexity
Codec ID                       : A_AAC-2
Duration                       : 1 h 51 min
Bit rate                       : 192 kb/s
Channel(s)                     : 6 channels
Channel layout                 : C L R Ls Rs LFE
Sampling rate                  : 48.0 kHz
Frame rate                     : 46.875 FPS (1024 SPF)
Compression mode               : Lossy
Delay relative to video        : -64 ms
Stream size                    : 153 MiB (16%)
Title                          : GOPI SAHI
Language                       : English
Default                        : No
Forced                         : No

Text
Language                       : English




 MAGNET

TORRENT

TORRENT 2 PRIVATE


TORRENT 3

SHARER-G-DRIVE FILE COPY

G-TOT-G-DRIVE FILE COPY

DOWNLOAD AUTO START IN 20 SEC

DOWNLOAD AND ONLINE TERA-BOX LINK

MEDIA-FIRE

MEGA NZ

DOSYA

DOWNLOAD AND ONLINE

ONLINE 720P

 

Post a Comment

0 Comments