Nightbooks 2021 x264 720p WebHD Esub English Hindi THE GOPI SAHI

Nightbooks (2021)

PG 09/15/2021 (US) FantasyHorror 1h 40m 

Write for your life.

Overview

Alex, a boy obsessed with scary stories, is trapped by a witch in her modern, magical New York City apartment. His original hair-raising tales are the only thing keeping him safe as he desperately tries to find a way out of this twisted place.

 

Directed byDavid Yarovesky
Screenplay by
Based onNightbooks
by J. A. White
Produced by
Starring
CinematographyRobert McLachan
Edited byPeter Gvozdas
Music byMichael Abels
Production
companies
Distributed byNetflix
Release date
  • September 15, 2021
Running time
103 minutes
CountryUnited States
LanguageEnglish


Nightbooks 2021 x264 720p WebHD Esub English Hindi THE GOPI SAHI

Format                         : Matroska
Format version                 : Version 4
File size                      : 943 MiB
Duration                       : 1 h 43 min
Overall bit rate               : 1 278 kb/s
Movie name                     : Nightbooks 2021 GOPI SAHI
Encoded date                   : UTC 2021-09-15 14:15:49

Video
ID                             : 1
Format                         : AVC
Format/Info                    : Advanced Video Codec
Format profile                 : [email protected]
Format settings                : CABAC / 12 Ref Frames
Format settings, CABAC         : Yes
Format settings, Reference fra : 12 frames
Codec ID                       : V_MPEG4/ISO/AVC
Duration                       : 1 h 43 min
Bit rate                       : 899 kb/s
Width                          : 1 256 pixels
Height                         : 532 pixels
Display aspect ratio           : 2.35:1
Frame rate mode                : Constant
Frame rate                     : 23.976 (24000/1001) FPS
Color space                    : YUV
Chroma subsampling             : 4:2:0
Bit depth                      : 8 bits
Scan type                      : Progressive
Bits/(Pixel*Frame)             : 0.056
Stream size                    : 664 MiB (70%)
Title                          : GOPI SAHI
Writing library                : x264 core 163 r3059 b684ebe0

Audio #1
ID                             : 2
Format                         : AAC LC
Format/Info                    : Advanced Audio Codec Low Complexity
Codec ID                       : A_AAC-2
Duration                       : 1 h 43 min
Bit rate                       : 188 kb/s
Channel(s)                     : 6 channels
Channel layout                 : C L R Ls Rs LFE
Sampling rate                  : 48.0 kHz
Frame rate                     : 46.875 FPS (1024 SPF)
Compression mode               : Lossy
Delay relative to video        : -21 ms
Stream size                    : 139 MiB (15%)
Title                          : GOPI SAHI
Language                       : Hindi
Default                        : Yes
Forced                         : No

Audio #2
ID                             : 3
Format                         : AAC LC
Format/Info                    : Advanced Audio Codec Low Complexity
Codec ID                       : A_AAC-2
Duration                       : 1 h 43 min
Bit rate                       : 188 kb/s
Channel(s)                     : 6 channels
Channel layout                 : C L R Ls Rs LFE
Sampling rate                  : 48.0 kHz
Frame rate                     : 46.875 FPS (1024 SPF)
Compression mode               : Lossy
Delay relative to video        : -21 ms
Stream size                    : 139 MiB (15%)
Title                          : GOPI SAHI
Language                       : English
Default                        : No
Forced                         : No

Text #1
Language                       : English

Text #I
Language                       : English




 MAGNET

TORRENT

TORRENT 2 PRIVATE

TORRENT 3

SHARER-G-DRIVE FILE COPY

G-TOT-G-DRIVE FILE COPY

DOWNLOAD AUTO START IN 20 SEC

DOWNLOAD AND ONLINE TERA-BOX LINK

MEDIA-FIRE

MEGA NZ

DOSYA

DOWNLOAD AND ONLINE

ONLINE 720P

 

Post a Comment

0 Comments