Operation Chromite 2016 x264 720p Esub BluRay Korean Hindi THE GOPI SAHI

Operation Chromite (2016)

R 08/12/2016 (US) HistoryDramaWarAction 1h 51m 

The Odds Were 5000 to 1 … One was all They Needed.

Overview

A squad of soldiers fight in the Korean War's crucial Battle of Incheon.

 

Directed byJohn H. Lee Jae-han
Written byLee Man-hee
Produced by
  • Jeong Tae-won
  • Kyu C. Lee
Starring
Edited bySteve M. Choi
Music byLee Dong-joon
Production
company
Taewon Entertainment
Distributed byCJ Entertainment
Release date
  • 27 July 2016
Running time
111 minutes[1]
CountrySouth Korea
Languages
  • Korean
  • English
BudgetUS$12.7 million[2]
Box officeUS$50.9 million[3]

 


Operation Chromite 2016 x264 720p Esub BluRay Korean Hindi THE GOPI SAHI


Format                         : Matroska
Format version                 : Version 4
File size                      : 1.00 GiB
Duration                       : 1 h 51 min
Overall bit rate               : 1 296 kb/s
Movie name                     : Operation Chromite 2016 GOPI SAHI
Encoded date                   : UTC 2021-09-03 05:31:08

Video
ID                             : 1
Format                         : AVC
Format/Info                    : Advanced Video Codec
Format profile                 : [email protected]
Format settings                : CABAC / 12 Ref Frames
Format settings, CABAC         : Yes
Format settings, Reference fra : 12 frames
Codec ID                       : V_MPEG4/ISO/AVC
Duration                       : 1 h 51 min
Bit rate                       : 899 kb/s
Width                          : 1 280 pixels
Height                         : 534 pixels
Display aspect ratio           : 2.35:1
Frame rate mode                : Variable
Frame rate                     : 23.976 FPS
Color space                    : YUV
Chroma subsampling             : 4:2:0
Bit depth                      : 8 bits
Scan type                      : Progressive
Bits/(Pixel*Frame)             : 0.055
Stream size                    : 714 MiB (69%)
Title                          : GOPI SAHI
Writing library                : x264 core 163 r3059 b684ebe0

Audio #1
ID                             : 2
Format                         : AAC LC
Format/Info                    : Advanced Audio Codec Low Complexity
Codec ID                       : A_AAC-2
Duration                       : 1 h 50 min
Bit rate                       : 192 kb/s
Channel(s)                     : 6 channels
Channel layout                 : C L R Ls Rs LFE
Sampling rate                  : 48.0 kHz
Frame rate                     : 46.875 FPS (1024 SPF)
Compression mode               : Lossy
Delay relative to video        : -13 ms
Stream size                    : 152 MiB (15%)
Title                          : GOPI SAHI
Language                       : Hindi
Default                        : Yes
Forced                         : No

Audio #2
ID                             : 3
Format                         : AAC LC
Format/Info                    : Advanced Audio Codec Low Complexity
Codec ID                       : A_AAC-2
Duration                       : 1 h 51 min
Bit rate                       : 192 kb/s
Channel(s)                     : 6 channels
Channel layout                 : C L R Ls Rs LFE
Sampling rate                  : 48.0 kHz
Frame rate                     : 46.875 FPS (1024 SPF)
Compression mode               : Lossy
Delay relative to video        : -21 ms
Stream size                    : 152 MiB (15%)
Title                          : GOPI SAHI
Language                       : Korean
Default                        : No
Forced                         : No

Text
ID                             : 4
Format                         : PGS
Muxing mode                    : zlib
Codec ID                       : S_HDMV/PGS
Codec ID/Info                  : Picture based subtitle format used on BDs/HD-DVDs
Duration                       : 1 h 45 min
Bit rate                       : 21.5 kb/s
Count of elements              : 1957
Stream size                    : 16.2 MiB (2%)
Title                          : GOPI SAHI
Language                       : English
Default                        : No
Forced                         : No

Menu
00:00:00.000                   : :00:00:00.000
00:11:22.612                   : :00:11:22.557
00:21:01.899                   : :00:21:01.761
00:29:39.708                   : :00:29:39.695
00:42:40.404                   : :00:42:40.391
00:51:47.284                   : :00:51:47.104
01:02:27.840                   : :01:02:27.827
01:14:15.506                   : :01:14:15.326
01:22:35.422                   : :01:22:35.367
01:28:46.751                   : :01:28:46.571
01:37:56.592                   : :01:37:56.579




 

MAGNET

TORRENT

TORRENT 2 PRIVATE

SHARER-G-DRIVE FILE COPY

G-TOT-G-DRIVE FILE COPY

DOWNLOAD AUTO START IN 20 SEC

DOWNLOAD AND ONLINE TERA-BOX LINK

MEDIA-FIRE

MEDIA-FIRE

MEGA NZ

DOWNLOAD AND ONLINE

ONLINE 720P


Post a Comment

0 Comments