Panchhi 2021 x264 720p WebHD Esub Punjabi THE GOPI SAHI

Panchhi 2021 x264 720p WebHD Esub Punjabi THE GOPI SAHI

 

 


Panchhi 2021 x264 720p WebHD Esub Punjabi THE GOPI SAHI


Format                         : Matroska
Format version                 : Version 4
File size                      : 697 MiB
Duration                       : 1 h 37 min
Overall bit rate               : 997 kb/s
Movie name                     : Panchhi 2021 GOPI SAHI
Encoded date                   : UTC 2021-09-01 06:41:09

Video
ID                             : 1
Format                         : AVC
Format/Info                    : Advanced Video Codec
Format profile                 : [email protected]
Format settings                : CABAC / 12 Ref Frames
Format settings, CABAC         : Yes
Format settings, Reference fra : 12 frames
Codec ID                       : V_MPEG4/ISO/AVC
Duration                       : 1 h 37 min
Bit rate                       : 899 kb/s
Width                          : 1 280 pixels
Height                         : 534 pixels
Display aspect ratio           : 2.35:1
Frame rate mode                : Constant
Frame rate                     : 29.970 (30000/1001) FPS
Color space                    : YUV
Chroma subsampling             : 4:2:0
Bit depth                      : 8 bits
Scan type                      : Progressive
Bits/(Pixel*Frame)             : 0.044
Stream size                    : 628 MiB (90%)
Title                          : GOPI SAHI
Writing library                : x264 core 163 r3059 b684ebe0

Audio
ID                             : 2
Format                         : AAC LC
Format/Info                    : Advanced Audio Codec Low Complexity
Codec ID                       : A_AAC-2
Duration                       : 1 h 37 min
Bit rate                       : 96.0 kb/s
Channel(s)                     : 2 channels
Channel layout                 : L R
Sampling rate                  : 48.0 kHz
Frame rate                     : 46.875 FPS (1024 SPF)
Compression mode               : Lossy
Delay relative to video        : -21 ms
Stream size                    : 67.4 MiB (10%)
Title                          : GOPI SAHI
Language                       : Panjabi
Default                        : Yes
Forced                         : No

Text
ID                             : 3
Format                         : UTF-8
Codec ID                       : S_TEXT/UTF8
Codec ID/Info                  : UTF-8 Plain Text
Duration                       : 1 h 35 min
Bit rate                       : 38 b/s
Count of elements              : 871
Stream size                    : 26.6 KiB (0%)
Title                          : GOPI SAHI
Language                       : English
Default                        : Yes
Forced                         : No




MAGNET

TORRENT

TORRENT 2 PRIVATE


SHARER-G-DRIVE FILE COPY

G-TOT-G-DRIVE FILE COPY

DOWNLOAD AUTO START IN 20 SEC

DOWNLOAD AND ONLINE TERA-BOX LINK

MEDIA-FIRE

MEGA NZ

DOSYA


DOWNLOAD AND ONLINE

ONLINE 720P

 

Post a Comment

0 Comments