Railroad Tigers 2016 x264 720p WebHD Hindi THE GOPI SAHI

Railroad Tigers (2016)

NR 12/23/2016 (CN) ActionComedyWar 2h 4m 
 

Roaring soon

Overview

A railroad worker in China in 1941 leads a team of freedom fighters against the Japanese in order to get food for the poor.

 

Traditional鐵道飛虎
Simplified铁道飞虎
Mandarintiědào fēi hǔ
Literallyrailroad flying tigers
Directed byDing Sheng
Produced byZhou Mao Fei
Zhao Lei
StarringJackie Chan
Huang Zi Tao
Jaycee Chan
Wang Kai
Wang Ta Lu
Production
companies
Shanghai Film Group
Yaolai Entertainment Media
Shanghai New Culture Media Group
Beijing Motianlun Media[1]
Distributed byYuyue Film Company[2]
Release date
  • December 23, 2016
Running time
124 minutes
CountryChina
LanguagesMandarin
Japanese
BudgetUS$50 Million[3]
Box officeUS$103 Million


Railroad Tigers 2016 x264 720p WebHD Hindi THE GOPI SAHI


Format                         : Matroska
Format version                 : Version 4
File size                      : 878 MiB
Duration                       : 1 h 59 min
Overall bit rate               : 1 029 kb/s
Movie name                     : Railroad Tigers 2016 GOPI SAHI
Encoded date                   : UTC 2021-09-12 05:25:03

Video
ID                             : 1
Format                         : AVC
Format/Info                    : Advanced Video Codec
Format profile                 : [email protected]
Format settings                : CABAC / 12 Ref Frames
Format settings, CABAC         : Yes
Format settings, Reference fra : 12 frames
Codec ID                       : V_MPEG4/ISO/AVC
Duration                       : 1 h 59 min
Bit rate                       : 899 kb/s
Width                          : 1 280 pixels
Height                         : 534 pixels
Display aspect ratio           : 2.40:1
Frame rate mode                : Constant
Frame rate                     : 25.000 FPS
Color space                    : YUV
Chroma subsampling             : 4:2:0
Bit depth                      : 8 bits
Scan type                      : Progressive
Bits/(Pixel*Frame)             : 0.053
Stream size                    : 766 MiB (87%)
Title                          : GOPI SAHI
Writing library                : x264 core 163 r3059 b684ebe0
Color range                    : Limited
Color primaries                : BT.709
Transfer characteristics       : BT.709
Matrix coefficients            : BT.709

Audio
ID                             : 2
Format                         : AAC LC
Format/Info                    : Advanced Audio Codec Low Complexity
Codec ID                       : A_AAC-2
Duration                       : 1 h 59 min
Bit rate                       : 129 kb/s
Channel(s)                     : 2 channels
Channel layout                 : L R
Sampling rate                  : 48.0 kHz
Frame rate                     : 46.875 FPS (1024 SPF)
Compression mode               : Lossy
Delay relative to video        : -21 ms
Stream size                    : 110 MiB (12%)
Title                          : GOPI SAHI
Language                       : Hindi
Default                        : Yes
Forced                         : No




MAGNET

TORRENT

TORRENT 2 PRIVATE

TORRENT 3

SHARER-G-DRIVE FILE COPY

G-TOT-G-DRIVE FILE COPY

DOWNLOAD AUTO START IN 20 SEC

DOWNLOAD AND ONLINE TERA-BOX LINK


MEDIA-FIRE

MEGA NZ

DOSYA


DOWNLOAD AND ONLINE

ONLINE 720P

 

Post a Comment

0 Comments