Rk-Rkay 2021 x264 720p WebHD Esub Hindi THE GOPI SAHI


Rk-Rkay 2021 x264 720p WebHD Esub Hindi THE GOPI SAHI

 


Rk-Rkay 2021 x264 720p WebHD Esub Hindi THE GOPI SAHI


Format                         : Matroska
Format version                 : Version 4
File size                      : 685 MiB
Duration                       : 1 h 36 min
Overall bit rate               : 997 kb/s
Movie name                     : Rk-Rkay 2021 GOPI SAHI
Encoded date                   : UTC 2021-09-07 09:19:29

Video
ID                             : 1
Format                         : AVC
Format/Info                    : Advanced Video Codec
Format profile                 : [email protected]
Format settings                : CABAC / 12 Ref Frames
Format settings, CABAC         : Yes
Format settings, Reference fra : 12 frames
Codec ID                       : V_MPEG4/ISO/AVC
Duration                       : 1 h 36 min
Bit rate                       : 899 kb/s
Width                          : 1 280 pixels
Height                         : 534 pixels
Display aspect ratio           : 2.40:1
Frame rate mode                : Constant
Frame rate                     : 24.000 FPS
Color space                    : YUV
Chroma subsampling             : 4:2:0
Bit depth                      : 8 bits
Scan type                      : Progressive
Bits/(Pixel*Frame)             : 0.055
Stream size                    : 617 MiB (90%)
Title                          : GOPI SAHI
Writing library                : x264 core 163 r3059 b684ebe0

Audio
ID                             : 2
Format                         : AAC LC
Format/Info                    : Advanced Audio Codec Low Complexity
Codec ID                       : A_AAC-2
Duration                       : 1 h 36 min
Bit rate                       : 96.0 kb/s
Channel(s)                     : 2 channels
Channel layout                 : L R
Sampling rate                  : 48.0 kHz
Frame rate                     : 46.875 FPS (1024 SPF)
Compression mode               : Lossy
Delay relative to video        : -21 ms
Stream size                    : 66.1 MiB (10%)
Title                          : GOPI SAHI
Language                       : Hindi
Default                        : Yes
Forced                         : No

 




 MAGNET

TORRENT

TORRENT 2 PRIVATE

SHARER-G-DRIVE FILE COPY

G-TOT-G-DRIVE FILE COPY

DOWNLOAD AUTO START IN 20 SEC

DOWNLOAD AND ONLINE TERA-BOX LINK

MEDIA-FIRE

MEGA NZ

DOSYA

DROPBOX

DOWNLOAD AND ONLINE

ONLINE 720P

 

Post a Comment

0 Comments