Seep 2021 x264 720p WebHD Esub Punjabi THE GOPI SAHI

Seep 2021 x264 720p WebHD Esub Punjabi THE GOPI SAHI


Seep 2021 x264 720p WebHD Esub Punjabi THE GOPI SAHI


Format                         : Matroska
Format version                 : Version 4
File size                      : 876 MiB
Duration                       : 2 h 2 min
Overall bit rate               : 998 kb/s
Movie name                     : Seep 2021 GOPI SAHI
Encoded date                   : UTC 2021-09-12 08:37:41
Writing application            : mkvmerge v61.0.0 ('So') 64-bit
Writing library                : libebml v1.4.2 + libmatroska v1.6.4

Video
ID                             : 1
Format                         : AVC
Format/Info                    : Advanced Video Codec
Format profile                 : [email protected]
Format settings                : CABAC / 12 Ref Frames
Format settings, CABAC         : Yes
Format settings, Reference fra : 12 frames
Codec ID                       : V_MPEG4/ISO/AVC
Duration                       : 2 h 2 min
Bit rate                       : 899 kb/s
Width                          : 1 280 pixels
Height                         : 534 pixels
Display aspect ratio           : 2.35:1
Frame rate mode                : Constant
Frame rate                     : 29.970 (30000/1001) FPS
Color space                    : YUV
Chroma subsampling             : 4:2:0
Bit depth                      : 8 bits
Scan type                      : Progressive
Bits/(Pixel*Frame)             : 0.044
Stream size                    : 789 MiB (90%)
Title                          : GOPI SAHI
Writing library                : x264 core 163 r3059 b684ebe0

Audio
ID                             : 2
Format                         : AAC LC
Format/Info                    : Advanced Audio Codec Low Complexity
Codec ID                       : A_AAC-2
Duration                       : 2 h 2 min
Bit rate                       : 96.0 kb/s
Channel(s)                     : 2 channels
Channel layout                 : L R
Sampling rate                  : 48.0 kHz
Frame rate                     : 46.875 FPS (1024 SPF)
Compression mode               : Lossy
Delay relative to video        : -21 ms
Stream size                    : 84.7 MiB (10%)
Title                          : GOPI SAHI
Language                       : Panjabi
Default                        : Yes
Forced                         : No

Text

Language                       : English




 MAGNET

TORRENT

TORRENT 2 PRIVATE


TORRENT 3


SHARER-G-DRIVE FILE COPY

G-TOT-G-DRIVE FILE COPY


DOWNLOAD AUTO START IN 20 SEC

DOWNLOAD AND ONLINE TERA-BOX LINK

MEDIA-FIRE

MEGA NZ

DOSYA

DOWNLOAD AND ONLINE

ONLINE 720P


Post a Comment

0 Comments