The Tower 2012 x264 720p WebHD Esub AAC Hindi Telugu Tamil THE GOPI SAHI

The Tower (2012)

PG-13 01/11/2013 (US) ActionDrama 2h 1m 

Tower Sky. 108 Stories. Survive at any cost.

Overview

On Christmas Eve at Tower Sky, an ultra-luxurious building complex, a White Christmas party is held to dazzle its equally high-end tenants and VIP guests. Dae-ho, the manager of the building and single father, is forced to cancel plans with his daughter Hana to work the event. His Christmas is saved when Yoon-hee, the food mall manager with a secret crush on Dae-ho, offers to babysit Hana during the party. Meanwhile, Young-ki the legendary fire chief of Yoido Station has finally promised his first holiday date night to his long suffering wife. The party is in full swing with the spectacular sight of two helicopters flying overhead just to spray snow on the partygoers and make everything perfect. When unthinkable disaster strikes, Dae-ho and Young-ki must summon all their strength and courage to save the lives of thousands but at what cost to themselves and their loved ones?

 

Hangul타워
Hanja타워
Revised RomanizationTawo
McCune–ReischauerT‘awŏ
Directed byKim Ji-hoon
Written byKim Sang-don
Heo Jun-seok
Adaptation
Kim Ji-hoon
Yoo Young-ah
Lee Min-jae
Produced byLee Han-seung
Lee Su-man
StarringSol Kyung-gu
Kim Sang-kyung
Son Ye-jin
CinematographyKim Young-ho
Edited byKim Sang-bum
Kim Jae-bum
Music byKim Tae-seong
Production
company
The Tower Pictures
Distributed byCJ Entertainment
Release date
  • December 25, 2012
Running time
121 minutes
CountrySouth Korea
LanguageKorean
BudgetUS$9.3 million
Box officeUS$36.4 million[1]

 


The Tower 2012 x264 720p WebHD Esub AAC Hindi Telugu Tamil THE GOPI SAHI


Format                         : Matroska
Format version                 : Version 4
File size                      : 993 MiB
Duration                       : 1 h 56 min
Overall bit rate               : 1 191 kb/s
Movie name                     : The Tower 2012 GOPI SAHI
Encoded date                   : UTC 2021-09-06 03:09:44

Video
ID                             : 1
Format                         : AVC
Format/Info                    : Advanced Video Codec
Format profile                 : [email protected]
Format settings                : CABAC / 12 Ref Frames
Format settings, CABAC         : Yes
Format settings, Reference fra : 12 frames
Codec ID                       : V_MPEG4/ISO/AVC
Duration                       : 1 h 56 min
Bit rate                       : 899 kb/s
Width                          : 1 280 pixels
Height                         : 534 pixels
Display aspect ratio           : 2.35:1
Frame rate mode                : Constant
Frame rate                     : 25.000 FPS
Color space                    : YUV
Chroma subsampling             : 4:2:0
Bit depth                      : 8 bits
Scan type                      : Progressive
Bits/(Pixel*Frame)             : 0.053
Stream size                    : 748 MiB (75%)
Title                          : GOPI SAHI
Writing library                : x264 core 163 r3059 b684ebe0

Audio #1
ID                             : 2
Format                         : AAC LC
Format/Info                    : Advanced Audio Codec Low Complexity
Codec ID                       : A_AAC-2
Duration                       : 1 h 56 min
Bit rate                       : 96.0 kb/s
Channel(s)                     : 2 channels
Channel layout                 : L R
Sampling rate                  : 48.0 kHz
Frame rate                     : 46.875 FPS (1024 SPF)
Compression mode               : Lossy
Delay relative to video        : -21 ms
Stream size                    : 80.4 MiB (8%)
Title                          : GOPI SAHI
Language                       : Hindi
Default                        : Yes
Forced                         : No

Audio #2
ID                             : 3
Format                         : AAC LC
Format/Info                    : Advanced Audio Codec Low Complexity
Codec ID                       : A_AAC-2
Duration                       : 1 h 56 min
Bit rate                       : 96.0 kb/s
Channel(s)                     : 2 channels
Channel layout                 : L R
Sampling rate                  : 48.0 kHz
Frame rate                     : 46.875 FPS (1024 SPF)
Compression mode               : Lossy
Delay relative to video        : -21 ms
Stream size                    : 80.4 MiB (8%)
Title                          : GOPI SAHI
Language                       : Telugu
Default                        : No
Forced                         : No

Audio #3
ID                             : 4
Format                         : AAC LC
Format/Info                    : Advanced Audio Codec Low Complexity
Codec ID                       : A_AAC-2
Duration                       : 1 h 56 min
Bit rate                       : 96.0 kb/s
Channel(s)                     : 2 channels
Channel layout                 : L R
Sampling rate                  : 48.0 kHz
Frame rate                     : 46.875 FPS (1024 SPF)
Compression mode               : Lossy
Delay relative to video        : -21 ms
Stream size                    : 80.5 MiB (8%)
Title                          : GOPI SAHI
Language                       : Tamil
Default                        : No
Forced                         : No




MAGNET

TORRENT

TORRENT 2 PRIVATE

SHARER-G-DRIVE FILE COPY

G-TOT-G-DRIVE FILE COPY

DOWNLOAD AUTO START IN 20 SEC


DOWNLOAD AND ONLINE TERA-BOX LINK


MEDIA-FIRE

MEGA NZ

DROPBOX

DOSYA

DOWNLOAD AND ONLINE


ONLINE 720P

 

Post a Comment

0 Comments