We're the Millers 2013 x264 720p BluRay Dual Audio English Hindi GOPI SAHI

We're the Millers (2013)

R 08/07/2013 (US) ComedyCrime 1h 50m 
 

If anyone asks.

Overview

A veteran pot dealer creates a fake family as part of his plan to move a huge shipment of weed into the U.S. from Mexico.

Directed byRawson Marshall Thurber
Screenplay by
Story by
  • Bob Fisher
  • Steve Faber
Produced by
Starring
CinematographyBarry Peterson
Edited byMike Sale
Music by
Production
companies
Distributed byWarner Bros. Pictures
Release date
Running time
110 minutes[1]
CountryUnited States
LanguageEnglish
Budget$37 million[2]
Box office$270 million[3]


We're the Millers 2013 x264 720p BluRay Dual Audio English Hindi GOPI SAHI


Format                         : Matroska
Format version                 : Version 4
File size                      : 1 011 MiB
Duration                       : 1 h 58 min
Overall bit rate               : 1 190 kb/s
Movie name                     : We're the Millers 2013 EXTENDED GOPI SAHI

Video
ID                             : 1
Format                         : AVC
Format/Info                    : Advanced Video Codec
Format profile                 : [email protected]
Format settings                : CABAC / 12 Ref Frames
Format settings, CABAC         : Yes
Format settings, Reference fra : 12 frames
Codec ID                       : V_MPEG4/ISO/AVC
Duration                       : 1 h 58 min
Bit rate                       : 899 kb/s
Width                          : 1 280 pixels
Height                         : 534 pixels
Display aspect ratio           : 2.40:1
Frame rate mode                : Constant
Frame rate                     : 23.976 (24000/1001) FPS
Color space                    : YUV
Chroma subsampling             : 4:2:0
Bit depth                      : 8 bits
Scan type                      : Progressive
Bits/(Pixel*Frame)             : 0.055
Stream size                    : 763 MiB (75%)
Title                          : GOPI SAHI
Writing library                : x264 core 163 r3059 b684ebe0

Audio #1
ID                             : 2
Format                         : AAC LC
Format/Info                    : Advanced Audio Codec Low Complexity
Codec ID                       : A_AAC-2
Duration                       : 1 h 58 min
Bit rate                       : 96.0 kb/s
Channel(s)                     : 2 channels
Channel layout                 : L R
Sampling rate                  : 48.0 kHz
Frame rate                     : 46.875 FPS (1024 SPF)
Compression mode               : Lossy
Delay relative to video        : -21 ms
Stream size                    : 81.8 MiB (8%)
Title                          : GOPI SAHI
Language                       : Hindi
Default                        : Yes
Forced                         : No

Audio #2
ID                             : 3
Format                         : AAC LC
Format/Info                    : Advanced Audio Codec Low Complexity
Codec ID                       : A_AAC-2
Duration                       : 1 h 58 min
Bit rate                       : 192 kb/s
Channel(s)                     : 6 channels
Channel layout                 : C L R Ls Rs LFE
Sampling rate                  : 48.0 kHz
Frame rate                     : 46.875 FPS (1024 SPF)
Compression mode               : Lossy
Delay relative to video        : -21 ms
Stream size                    : 163 MiB (16%)
Title                          : GOPI SAHI
Language                       : English
Default                        : No
Forced                         : No

Menu
00:00:00.000                   : :00:00:00.000
00:09:20.185                   : :00:09:20.059
00:20:16.298                   : :00:20:16.048
00:30:49.931                   : :00:30:49.639
00:42:07.316                   : :00:42:07.150
00:52:06.206                   : :00:52:05.998
01:02:17.943                   : :01:02:17.776
01:13:23.274                   : :01:13:22.982
01:24:57.509                   : :01:24:57.259
01:36:17.355                   : :01:36:17.063
01:48:36.802                   : :01:48:36.677
01:51:39.359                   : :01:51:39.276

 




 MAGNET

TORRENT


TORRENT 2 PRIVATE

SHARER-G-DRIVE FILE COPY


G-TOT-G-DRIVE FILE COPY


DOWNLOAD AUTO START IN 20 SEC

DOWNLOAD AND ONLINE TERA-BOX LINK


MEDIA-FIRE


MEGA NZ

DOSYA

DOWNLOAD AND ONLINE

ONLINE 720P

 

Post a Comment

0 Comments