Kade Haan Kade Naa 2021 x264 720p Chaupal WebHD Esub AAC Punjabi THE GOPI SAHI

 

Kade Haan Kade Naa (2021)

12/03/2021 (IN) 2h 14m 

Overview

"Kade Haan Kade Naa" movie is a romantic comedy featuring Singga and Sanjana Singh. The plot of the movie story is based on a confusing situation with the characters.

 

Kade Haan Kade Naa 2021 x264 720p Chaupal WebHD Esub AAC Punjabi THE GOPI SAHI

Format                         : Matroska
Format version                 : Version 4
File size                      : 944 MiB
Duration                       : 2 h 12 min
Overall bit rate               : 998 kb/s
Movie name                     : Kade Haan Kade Naa 2021 GOPI SAHI
Encoded date                   : UTC 2022-01-15 05:57:15

Video
ID                             : 1
Format                         : AVC
Format/Info                    : Advanced Video Codec
Format profile                 : [email protected]
Format settings                : CABAC / 6 Ref Frames
Format settings, CABAC         : Yes
Format settings, Reference fra : 6 frames
Codec ID                       : V_MPEG4/ISO/AVC
Duration                       : 2 h 12 min
Bit rate                       : 899 kb/s
Width                          : 1 280 pixels
Height                         : 534 pixels
Display aspect ratio           : 2.40:1
Frame rate mode                : Constant
Frame rate                     : 29.970 (30000/1001) FPS
Color space                    : YUV
Chroma subsampling             : 4:2:0
Bit depth                      : 8 bits
Scan type                      : Progressive
Bits/(Pixel*Frame)             : 0.044
Stream size                    : 851 MiB (90%)
Title                          : GOPI SAHI
Writing library                : x264 core 163 r3059 b684ebe0

Audio
ID                             : 2
Format                         : AAC LC
Format/Info                    : Advanced Audio Codec Low Complexity
Codec ID                       : A_AAC-2
Duration                       : 2 h 12 min
Bit rate                       : 96.0 kb/s
Channel(s)                     : 2 channels
Channel layout                 : L R
Sampling rate                  : 48.0 kHz
Frame rate                     : 46.875 FPS (1024 SPF)
Compression mode               : Lossy
Delay relative to video        : -21 ms
Stream size                    : 91.0 MiB (10%)
Title                          : GOPI SAHI
Language                       : Panjabi
Default                        : Yes
Forced                         : No

Text
Language                       : English



 MAGNET

TORRENT


SHARER-G-DRIVE FILE COPY

G-TOT-G-DRIVE FILE COPY


DOWNLOAD AUTO START IN 5 SEC

DOWNLOAD AUTO START IN 5 SEC

TERA-BOX

MEDIA-FIRE

MEGA NZ

DOSYA

DOWNLOAD

ONLINE 720P AND DOWNLOAD IN HINDI AUDIO ONLY

ONLINE 720P LINK 2


1080P BY TEAM TELLY G-TOT

2160P BY TEAM TELLY G-TOT

720-360-P-PART-1-T0-END


PART 2


PART 3


PART 4


PART 5


PART 6


PART 7


PART 8


PART 9

Post a Comment

0 Comments